<?xml version="1.0" standalone="no"?>
<!DOCTYPE svg PUBLIC "-//W3C//DTD SVG 1.1//EN" "http://www.w3.org/Graphics/SVG/1.1/DTD/svg11.dtd" >
<svg xmlns="http://www.w3.org/2000/svg">
<metadata></metadata>
<defs>
<font id="TitilliumUpBold" horiz-adv-x="1146" >
<font-face units-per-em="2048" ascent="1536" descent="-512" />
<missing-glyph horiz-adv-x="450" />
<glyph horiz-adv-x="0" />
<glyph horiz-adv-x="2048" />
<glyph unicode=" "  horiz-adv-x="450" />
<glyph unicode="&#x09;" horiz-adv-x="450" />
<glyph unicode="&#xa0;" horiz-adv-x="450" />
<glyph unicode="!" horiz-adv-x="473" d="M160 0v227h155v-227h-155zM160 1434h155l-8 -963h-143z" />
<glyph unicode="&#x22;" horiz-adv-x="708" d="M127 1421h145l-4 -467h-135zM434 1421h146l-5 -467h-135z" />
<glyph unicode="#" d="M49 369v131h227v364h-227v131h227v369h140v-369h315v369h139v-369h228v-131h-228v-364h228v-131h-228v-369h-139v369h-315v-369h-140v369h-227zM416 500h315v364h-315v-364z" />
<glyph unicode="$" d="M168 995q0 375 414 375q31 0 47 -2l37 231h110l-39 -239q49 -5 101 -13t79 -13l27 -5l-8 -119q-110 13 -219 21l-74 -475q89 -24 147.5 -50t103.5 -67.5t65 -101t20 -144.5q0 -416 -406 -416q-26 0 -53 3l-35 -224h-110l35 232q-52 4 -108 11t-86 12l-30 5l9 123 q120 -14 235 -22l84 520q-181 47 -263.5 125t-82.5 233zM322 1012q0 -103 48 -150.5t167 -79.5l71 455h-18q-136 0 -202 -53t-66 -172zM541 111h32q254 0 254 268q0 101 -48.5 151.5t-157.5 81.5z" />
<glyph unicode="%" d="M59 1155q0 -145 60 -218t166 -73t165.5 72.5t59.5 216.5q0 145 -59 215t-166 70q-108 0 -167 -69.5t-59 -213.5zM182 1155q0 91 23.5 133.5t79.5 42.5t79 -42.5t23 -135.5q0 -94 -23.5 -139t-78.5 -45t-79 46t-24 140zM326 12l379 1440l110 -31l-379 -1439zM637 291 q0 282 223 282q225 0 225 -284q0 -144 -59.5 -216.5t-165.5 -72.5t-164.5 72.5t-58.5 218.5zM760 291q0 -95 23 -141t77 -46q57 0 80 45t23 140q0 94 -23 136t-80 42q-54 0 -77 -42.5t-23 -133.5z" />
<glyph unicode="&#x26;" horiz-adv-x="1302" d="M68 418q0 287 301 401q-61 79 -83 145.5t-22 157.5q0 157 84.5 236.5t245.5 79.5q167 0 252.5 -76.5t85.5 -237.5q0 -59 -11.5 -106.5t-41.5 -98.5t-91 -97.5t-151 -86.5l289 -299q43 109 55 266h141q-3 -83 -29.5 -191t-62.5 -179q228 -228 240 -244q-97 -104 -101 -104 l-221 225q-78 -120 -180 -174.5t-250 -54.5q-222 0 -336 112.5t-114 325.5zM227 412q0 -133 74.5 -215t220.5 -82q214 0 326 186l-393 418q-129 -50 -178.5 -126.5t-49.5 -180.5zM424 1114q0 -99 25.5 -153t105.5 -136q119 51 168 116t49 175q0 191 -178 191 q-83 0 -126.5 -53t-43.5 -140z" />
<glyph unicode="'" horiz-adv-x="401" d="M127 1421h145l-4 -467h-135z" />
<glyph unicode="(" horiz-adv-x="507" d="M96 616q0 119 20.5 257.5t50 250.5t58.5 207t49 148l21 53h145q-8 -22 -20.5 -60t-44.5 -151t-56.5 -219.5t-44.5 -242.5t-20 -243t19 -235.5t46.5 -236.5t55 -200.5t46.5 -145.5l19 -52h-145q-8 18 -21.5 50.5t-48 132t-60.5 198t-47.5 234.5t-21.5 255z" />
<glyph unicode=")" horiz-adv-x="507" d="M68 -242q8 22 20.5 60t44.5 151t56.5 219.5t44.5 242.5t20 243t-19 235.5t-46.5 236.5t-55 200.5t-46.5 145.5l-19 52h145q8 -18 21.5 -50.5t48 -132t60.5 -198t47.5 -234.5t21.5 -255t-20.5 -257.5t-50 -250.5t-58.5 -207t-49 -148l-21 -53h-145z" />
<glyph unicode="*" horiz-adv-x="831" d="M96 938l221 162l-217 157l62 86l219 -159l84 258l100 -33l-84 -260h269v-102h-271l84 -256l-100 -31l-84 258l-221 -162z" />
<glyph unicode="+" d="M113 444v140h387v399h143v-399h391v-140h-391v-403h-143v403h-387z" />
<glyph unicode="," horiz-adv-x="425" d="M70 -266l77 493h164l-118 -493h-123z" />
<glyph unicode="-" horiz-adv-x="770" d="M129 477v141h514v-141h-514z" />
<glyph unicode="." horiz-adv-x="411" d="M129 0v227h156v-227h-156z" />
<glyph unicode="/" horiz-adv-x="798" d="M59 31l541 1417l141 -51l-540 -1417z" />
<glyph unicode="0" d="M94 655q0 167 22 291.5t61.5 205.5t100.5 131t131.5 70.5t161.5 20.5q93 0 165 -20.5t133 -70t100 -130.5t60.5 -205.5t21.5 -290.5q0 -161 -24.5 -281t-78.5 -211t-148 -138t-227 -47q-132 0 -225.5 46.5t-148.5 137t-80 210.5t-25 281zM254 653q0 -77 5 -139.5 t17.5 -126t36 -110t57.5 -84t85.5 -57t117.5 -19.5q77 0 134 27t92 72t56 116t28.5 147t7.5 176q0 220 -36 349t-103.5 181t-178.5 52q-110 0 -177.5 -50.5t-104.5 -180.5t-37 -353z" />
<glyph unicode="1" d="M225 1067l426 287h144v-1354h-158v1169l-338 -225z" />
<glyph unicode="2" d="M141 0v129l404 420q78 81 118 127t80 103.5t55 107.5t15 108q0 128 -71.5 185t-211.5 57q-62 0 -154 -11.5t-153 -22.5l-61 -11l-12 125q225 57 403 57q420 0 420 -362q0 -77 -18 -142.5t-59.5 -128.5t-85.5 -113t-118 -122l-368 -369h684v-137h-867z" />
<glyph unicode="3" d="M131 33l19 121q198 -37 405 -37q141 0 215 67t74 197q0 241 -273 252h-266v127l264 8q53 1 107.5 28.5t94.5 84t40 125.5q0 124 -63 177.5t-209 53.5q-78 0 -172.5 -9.5t-149.5 -18.5l-55 -9l-10 119q217 55 393 55q223 0 324.5 -85.5t101.5 -266.5q0 -111 -49 -184 t-150 -119q57 -21 95 -43t71.5 -58.5t49.5 -93.5t16 -137q0 -407 -433 -407q-89 0 -199 13t-176 27z" />
<glyph unicode="4" d="M96 254v119l404 981h168l-414 -965h479v442h156v-442h162v-135h-162v-258h-156v258h-637z" />
<glyph unicode="5" d="M135 43l19 123q219 -47 409 -47q135 0 218 84t83 237q0 271 -282 271q-70 0 -149.5 -21t-124.5 -42l-44 -21l-108 22l41 705h772v-140h-643l-37 -450q19 9 51 23t115 37.5t147 23.5q422 0 422 -402q0 -229 -122.5 -346.5t-332.5 -117.5q-83 0 -191.5 15t-175.5 31z" />
<glyph unicode="6" d="M111 629q0 166 25.5 294t70.5 212.5t111.5 138.5t142.5 77t170 23q68 0 159 -10t148 -20l57 -11l-16 -129q-188 33 -348 33q-168 0 -258 -116.5t-103 -362.5q22 10 58 24t125.5 38t152.5 24q213 0 330 -102t117 -310q0 -223 -118 -337.5t-337 -114.5q-243 0 -365 167 t-122 482zM270 598q0 -223 84 -352t244 -129q143 0 219 79.5t76 235.5q0 138 -77.5 206.5t-221.5 68.5q-65 0 -145.5 -19.5t-128.5 -39.5l-48 -19q-2 -8 -2 -31z" />
<glyph unicode="7" d="M168 1217v137h817v-224l-512 -1157l-145 47l499 1123v74h-659z" />
<glyph unicode="8" d="M72 352q0 73 17.5 130.5t52 98.5t72.5 69t93 57q-112 55 -162.5 125.5t-50.5 191.5q0 171 127 260.5t348 89.5q223 0 353.5 -89.5t130.5 -262.5q0 -125 -52.5 -192.5t-175.5 -122.5q119 -47 183.5 -124t64.5 -208q0 -108 -38.5 -187t-109 -124t-158.5 -66t-198 -21 q-85 0 -156.5 12t-135.5 39.5t-108.5 70t-70.5 107t-26 146.5zM231 371q0 -68 25.5 -118t71.5 -80t106 -44t135 -14q344 0 344 268q0 57 -18 99t-55 70t-75.5 45t-96.5 34h-207q-112 -32 -171 -92t-59 -168zM254 1006q0 -91 51.5 -148t155.5 -94h207q110 36 167.5 93 t57.5 147q0 118 -84 175.5t-238 57.5q-317 0 -317 -231z" />
<glyph unicode="9" d="M92 932q0 206 129.5 324t331.5 118q237 0 358 -179t121 -523q0 -192 -37 -328.5t-107.5 -215t-163 -113.5t-214.5 -35q-68 0 -159.5 10.5t-149.5 21.5l-58 11l17 137q190 -35 350 -35q357 0 360 459q-23 -8 -61.5 -20.5t-130.5 -33t-152 -20.5q-202 0 -318 107t-116 315z M256 932q0 -140 74 -210.5t209 -70.5q59 0 142.5 16.5t136.5 32.5l54 17q-2 242 -81 377t-238 135q-133 0 -215 -80t-82 -217z" />
<glyph unicode=":" horiz-adv-x="411" d="M129 0v227h156v-227h-156zM129 670v227h156v-227h-156z" />
<glyph unicode=";" horiz-adv-x="471" d="M90 -266h123l119 493h-164zM172 670v227h156v-227h-156z" />
<glyph unicode="&#x3c;" d="M125 446v136l854 415v-159l-694 -322l694 -328v-161z" />
<glyph unicode="=" d="M131 254v141h885v-141h-885zM131 633v141h885v-141h-885z" />
<glyph unicode="&#x3e;" d="M168 27v161l694 328l-694 322v159l854 -415v-136z" />
<glyph unicode="?" horiz-adv-x="837" d="M61 1382q197 56 320 56q200 0 292.5 -78t92.5 -266q0 -94 -44 -171t-171 -218q-62 -69 -91.5 -119.5t-29.5 -102.5v-82h-147q-11 60 -11 105q0 78 34.5 135.5t135.5 171.5q98 112 130 165t32 116q0 119 -53.5 161.5t-181.5 42.5q-50 0 -122.5 -10t-119.5 -20l-47 -11z M270 2v238h160v-238h-160z" />
<glyph unicode="@" horiz-adv-x="1886" d="M92 535q0 335 96 540t287.5 297t497.5 92q189 0 329 -36t237.5 -106t156.5 -183t85.5 -257.5t26.5 -338.5q0 -553 -360 -553q-117 0 -175.5 43.5t-82.5 156.5q-14 -24 -41.5 -54.5t-68.5 -65t-97 -57.5t-113 -23q-175 0 -253 127t-78 375q0 103 10.5 182t38.5 149 t73.5 115t117.5 70.5t169 25.5q52 0 145 -9t159 -17l67 -9v-731q0 -77 30 -112t99 -35q37 0 67.5 11t59 39.5t48 75t31 121.5t11.5 175q0 143 -13 251t-43.5 199t-82 152.5t-128.5 105t-181.5 63t-243.5 19.5q-261 0 -420.5 -79t-237 -254t-77.5 -465q0 -212 36.5 -361 t121 -254t224.5 -155t345 -50q35 0 104 5.5t121 10.5l51 5l4 -133q-188 -19 -280 -19q-239 0 -406 58t-270.5 179t-150 295.5t-46.5 418.5zM696 506q0 -94 8.5 -160.5t30 -119.5t62 -79t100.5 -26q44 0 87.5 22t74.5 53.5t56 63.5t37 54l13 22v547l-43 5q-42 5 -93.5 10 t-74.5 5q-66 0 -113.5 -21t-75 -55t-43.5 -87.5t-21 -107t-5 -126.5z" />
<glyph unicode="A" horiz-adv-x="1132" d="M45 0l367 1417h309l364 -1417h-155l-99 360h-530l-98 -360h-158zM332 500h467l-203 778h-59z" />
<glyph unicode="B" horiz-adv-x="1167" d="M158 0v1417h469q403 0 403 -354q0 -133 -45.5 -210.5t-134.5 -117.5q118 -44 169.5 -122.5t51.5 -209.5q0 -210 -107.5 -306.5t-324.5 -96.5h-481zM313 137h324q139 0 204.5 67t65.5 208q0 126 -68 184.5t-208 58.5h-318v-518zM313 791h316q121 0 180 69.5t59 188.5 t-60 175t-181 56h-314v-489z" />
<glyph unicode="C" horiz-adv-x="1026" d="M109 707q0 144 13.5 253.5t47 202t88 151.5t137.5 91.5t195 32.5q76 0 166 -11t142 -21l52 -11l-10 -131q-193 34 -330 34q-83 0 -143 -27t-98 -74t-60 -123.5t-30.5 -162.5t-8.5 -204q0 -114 8 -198t30 -161t59.5 -125t99 -76t145.5 -28q55 0 137 8.5t137 17.5l54 9 l8 -131q-196 -43 -358 -43q-116 0 -201 33t-138.5 92t-85.5 152.5t-44 200t-12 249.5z" />
<glyph unicode="D" horiz-adv-x="1226" d="M158 0v1417h469q140 0 234.5 -39.5t151.5 -126t81 -210.5t24 -306q0 -190 -23 -321t-78 -227t-151 -141.5t-239 -45.5h-469zM313 139h314q80 0 138 27t94 75t57.5 125t29.5 164t8 205q0 116 -8 198t-29 151t-58 109.5t-94 62.5t-138 22h-314v-1139z" />
<glyph unicode="E" horiz-adv-x="1038" d="M158 0v1417h792v-139h-637v-487h523v-140h-523v-512h637v-139h-792z" />
<glyph unicode="F" horiz-adv-x="997" d="M158 0v1417h794v-139h-639v-559h525v-137h-525v-582h-155z" />
<glyph unicode="G" horiz-adv-x="1175" d="M106 711q0 140 14 247t49.5 200t94 152.5t149.5 93.5t214 34q96 0 202.5 -13.5t164.5 -26.5l59 -14l-9 -124q-237 38 -407 38q-80 0 -140.5 -19.5t-100.5 -59t-66 -88t-39 -119.5t-18 -140t-5 -161q0 -101 9.5 -184t34.5 -161t65.5 -130.5t105.5 -84.5t152 -32 q45 0 110 6.5t107 12.5l43 7v459h-215v135h373v-714q-281 -45 -435 -45q-117 0 -206.5 37.5t-146.5 102t-93.5 159.5t-51 199.5t-14.5 232.5z" />
<glyph unicode="H" horiz-adv-x="1269" d="M158 0v1417h155v-633h641v633h158v-1417h-158v647h-641v-647h-155z" />
<glyph unicode="I" horiz-adv-x="471" d="M158 0v1417h155v-1417h-155z" />
<glyph unicode="J" horiz-adv-x="548" d="M35 -4q50 0 84 4.5t57.5 19t36 30.5t19.5 48.5t8.5 63t1.5 84.5v1171h155l2 -1184q0 -78 -4.5 -128t-18 -96t-37.5 -72t-65.5 -45.5t-99 -27t-139.5 -7.5v139z" />
<glyph unicode="K" horiz-adv-x="1075" d="M158 0v1417h155v-655l193 8l342 647h176l-383 -700l406 -717h-177l-362 631l-195 -6v-625h-155z" />
<glyph unicode="L" horiz-adv-x="897" d="M158 0v1417h155v-1278h559v-139h-714z" />
<glyph unicode="M" horiz-adv-x="1589" d="M158 0v1417h276l361 -1216l362 1216h275v-1417h-150v1278h-29l-362 -1227h-195l-360 1227h-31v-1278h-147z" />
<glyph unicode="N" horiz-adv-x="1288" d="M158 0v1417h274l510 -1255h37v1255h151v-1417h-270l-512 1262h-35v-1262h-155z" />
<glyph unicode="O" horiz-adv-x="1253" d="M109 721q0 267 44.5 421t159.5 224q112 72 314 72q105 0 184 -18t137 -58t95.5 -95.5t60.5 -139t32 -180t9 -226.5q0 -279 -48 -441t-173 -235q-107 -65 -297 -65q-125 0 -214.5 30t-148.5 86t-93 149t-48 206t-14 270zM272 721q0 -112 4.5 -189.5t18 -150t38 -117.5 t64 -80t96 -50t134.5 -15q118 0 184 35q102 51 136 181t34 386q0 112 -4.5 187.5t-18 145.5t-37.5 112t-64 74t-96 45t-134 13q-115 0 -181 -28q-106 -45 -140 -168.5t-34 -380.5z" />
<glyph unicode="P" horiz-adv-x="1122" d="M158 0v1417h448q228 0 339.5 -108.5t111.5 -350.5q0 -491 -451 -491h-293v-467h-155zM313 608h285q149 0 222 82.5t73 272.5q0 174 -72 244.5t-223 70.5h-285v-670z" />
<glyph unicode="Q" horiz-adv-x="1253" d="M109 721q0 267 44.5 421t159.5 224q112 72 314 72q105 0 184 -18t137 -58t95.5 -95.5t60.5 -139t32 -180t9 -226.5q0 -276 -46.5 -437t-166.5 -235l160 -262l-136 -80l-161 289q-78 -16 -168 -16q-125 0 -214.5 30t-148.5 86t-93 149t-48 206t-14 270zM272 721 q0 -112 4.5 -189.5t18 -150t38 -117.5t64 -80t96 -50t134.5 -15q118 0 184 35q102 51 136 181t34 386q0 112 -4.5 187.5t-18 145.5t-37.5 112t-64 74t-96 45t-134 13q-115 0 -181 -28q-106 -45 -140 -168.5t-34 -380.5z" />
<glyph unicode="R" horiz-adv-x="1159" d="M158 0v1417h467q212 0 319 -105t107 -325q0 -182 -62.5 -278.5t-173.5 -135.5l270 -573h-170l-253 543h-349v-543h-155zM313 680h312q136 0 200 75.5t64 231.5q0 149 -64 221t-200 72h-312v-600z" />
<glyph unicode="S" horiz-adv-x="1024" d="M88 1044q0 394 434 394q72 0 166.5 -11t153.5 -21l59 -11l-8 -125q-226 28 -363 28q-142 0 -211 -56t-69 -181q0 -51 12.5 -88t33 -62t62.5 -45.5t84 -33.5t115 -31q103 -26 168 -52.5t116.5 -69.5t74 -107.5t22.5 -157.5q0 -434 -426 -434q-71 0 -172.5 9.5t-167.5 18.5 l-66 10l11 129q260 -28 395 -28q136 0 201 70t65 210q0 64 -16.5 107.5t-55 73t-87 47t-127.5 35.5q-105 25 -174.5 52.5t-124.5 71t-80 107t-25 151.5z" />
<glyph unicode="T" horiz-adv-x="964" d="M25 1278v139h915v-139h-375v-1278h-157v1278h-383z" />
<glyph unicode="U" horiz-adv-x="1222" d="M150 432v985h155v-995q0 -161 73 -232t232 -71q160 0 232.5 70.5t72.5 232.5v995h158v-985q0 -233 -113 -342.5t-350 -109.5q-235 0 -347.5 109.5t-112.5 342.5z" />
<glyph unicode="V" horiz-adv-x="1112" d="M45 1417h158l309 -1278h90l305 1278h158l-344 -1417h-330z" />
<glyph unicode="W" horiz-adv-x="1701" d="M61 1417h152l244 -1272h53l254 1252h170l260 -1252h53l238 1272h153l-274 -1417h-279l-237 1194l-232 -1194h-276z" />
<glyph unicode="X" horiz-adv-x="1060" d="M33 0l405 705l-401 712h172l321 -592l322 592h170l-393 -710l399 -707h-172l-324 592l-329 -592h-170z" />
<glyph unicode="Y" horiz-adv-x="1019" d="M20 1417h170l320 -653l317 653h168l-409 -823v-594h-150v594z" />
<glyph unicode="Z" horiz-adv-x="1013" d="M82 -2v197l674 1032v51h-674v139h850v-196l-676 -1035v-49h676v-139h-850z" />
<glyph unicode="[" horiz-adv-x="630" d="M147 -250v1780h406v-133h-258v-1514h258v-133h-406z" />
<glyph unicode="\" horiz-adv-x="923" d="M59 1419l158 17l645 -1469l-155 -16z" />
<glyph unicode="]" horiz-adv-x="630" d="M78 -117h258v1514h-258v133h405v-1780h-405v133z" />
<glyph unicode="^" d="M109 653l378 699h140l391 -699h-164l-295 547l-287 -547h-163z" />
<glyph unicode="_" horiz-adv-x="1284" d="M184 -162h918v-149h-918v149z" />
<glyph unicode="`" horiz-adv-x="1060" d="M248 1403l47 127l422 -193l-41 -110z" />
<glyph unicode="a" horiz-adv-x="1009" d="M96 492q0 103 10.5 183t38.5 151.5t73.5 117.5t118 73t169.5 27q52 0 144 -8.5t158 -17.5l66 -8v-758q0 -43 3 -105.5t7 -103.5l3 -41l-154 -6q-10 94 -10 176q-5 -8 -13.5 -21t-37.5 -46t-61.5 -58t-83 -46t-103.5 -21q-178 0 -253 125.5t-75 386.5zM252 492 q0 -90 9 -155t31 -118t62.5 -79.5t100.5 -26.5q44 0 87.5 22t74 53.5t55 62.5t36.5 53l13 22v567q-142 18 -197 18q-82 0 -135.5 -26t-83.5 -82t-41.5 -129t-11.5 -182z" />
<glyph unicode="b" horiz-adv-x="1011" d="M135 2v1468h154v-569q5 6 15.5 15.5t42 34t64 43.5t80 34.5t91.5 15.5q95 0 160.5 -34.5t103 -103.5t53.5 -159.5t16 -214.5q0 -289 -100.5 -420.5t-329.5 -131.5q-55 0 -142.5 5.5t-147.5 10.5zM289 127q154 -14 203 -14q153 0 210.5 98.5t57.5 320.5q0 88 -9.5 153.5 t-32 118t-63.5 80t-100 27.5q-39 0 -81 -15t-74 -36t-58 -42.5t-40 -36.5l-13 -15v-639z" />
<glyph unicode="c" horiz-adv-x="817" d="M94 526q0 269 95.5 393.5t304.5 124.5q46 0 108 -7.5t100 -14.5l39 -8l-6 -123q-137 18 -211 18q-153 0 -212.5 -91t-59.5 -292q0 -84 5.5 -142t22 -113t46 -87t79 -51.5t119.5 -19.5q33 0 85.5 4t88.5 8l37 4l6 -121q-145 -28 -249 -28q-96 0 -166 24t-114.5 67t-71 113 t-36.5 151t-10 191z" />
<glyph unicode="d" horiz-adv-x="1009" d="M96 498q0 274 93 410t305 136q46 0 103 -6.5t91 -13.5l33 -6v452h153v-1470h-149l-2 150q-5 -7 -13.5 -18.5t-38.5 -40.5t-62.5 -51.5t-84 -41t-104.5 -18.5q-175 0 -249.5 131.5t-74.5 386.5zM252 498q0 -70 4.5 -123.5t18.5 -104.5t36.5 -84t60.5 -53t89 -20 q42 0 84 20t72.5 48.5t55 57t36.5 48.5l12 20v582q-117 22 -213 22q-143 0 -199.5 -101.5t-56.5 -311.5z" />
<glyph unicode="e" horiz-adv-x="927" d="M92 496q0 546 416 546q342 0 342 -274q0 -92 -29 -153t-93 -95.5t-152.5 -48.5t-221.5 -14h-106v-31q0 -149 59 -231t180 -82q64 0 143.5 9.5t127.5 19.5l47 10l8 -113q-17 -6 -46.5 -15.5t-117 -25.5t-170.5 -16q-203 0 -295 122t-92 392zM250 575h102q192 0 269 39.5 t77 151.5q0 81 -48 115t-142 34q-134 0 -195 -86.5t-63 -253.5z" />
<glyph unicode="f" horiz-adv-x="634" d="M59 891v133h117v88q0 204 61 291.5t199 87.5q29 0 74 -5.5t76 -10.5l30 -5l-2 -127q-92 15 -151 15q-76 0 -104.5 -58t-28.5 -190v-86h268v-133h-268v-891l-15 -455h-139v1346h-117z" />
<glyph unicode="g" horiz-adv-x="962" d="M82 -205q0 86 54.5 164t133.5 129q-51 43 -51 123q0 30 16.5 71t32.5 67l17 26q-189 70 -189 317q0 167 91.5 259.5t258.5 92.5q38 0 83.5 -6.5t71.5 -13.5l26 -6l293 4v-127h-181q31 -29 50.5 -85.5t19.5 -117.5q0 -167 -94 -256.5t-271 -89.5l-49 4q-35 -76 -35 -121 q0 -26 10 -40.5t51.5 -25.5t119.5 -11q93 0 155.5 -11t115 -40t78 -86t25.5 -144q0 -159 -121 -255.5t-313 -96.5q-96 0 -164 12t-123.5 41.5t-83.5 85t-28 137.5zM227 -180q0 -95 63.5 -132.5t196.5 -37.5q129 0 205 58.5t76 162.5q0 39 -11 66t-29.5 42.5t-50.5 24.5 t-64.5 11.5t-80.5 2.5q-96 0 -165 15q-54 -29 -97 -89.5t-43 -123.5zM242 692q0 -213 202 -213q220 0 220 213q0 223 -218 223q-102 0 -153 -58t-51 -165z" />
<glyph unicode="h" horiz-adv-x="1026" d="M135 0v1470h154v-598q5 7 14.5 18.5t40.5 41t63.5 52.5t81.5 41.5t97 18.5q313 0 313 -405v-639h-151v594q0 166 -45 241.5t-148 75.5q-38 0 -79.5 -19t-73.5 -46.5t-58.5 -55t-40.5 -46.5l-14 -19v-725h-154z" />
<glyph unicode="i" horiz-adv-x="423" d="M133 1239v182h158v-182h-158zM135 0v1024h154v-1024h-154z" />
<glyph unicode="j" horiz-adv-x="423" d="M-94 -362q59 36 94 59.5t63 51t40.5 46.5t21 54t9.5 64.5t1 86.5v1024h154v-1024q0 -74 -3 -118.5t-15.5 -90t-31.5 -73.5t-58.5 -63t-88 -64t-127.5 -72zM135 1239v184h156v-184h-156z" />
<glyph unicode="k" horiz-adv-x="927" d="M135 0v1470h154v-868l131 6l291 416h172l-334 -471l340 -553h-172l-295 477l-133 -8v-469h-154z" />
<glyph unicode="l" horiz-adv-x="440" d="M143 0v1470h154v-1470h-154z" />
<glyph unicode="m" horiz-adv-x="1593" d="M135 0v1024h152l2 -154q5 7 15 19t41.5 42t64 52.5t80 41.5t92.5 19q59 0 108 -18t76.5 -44t47 -52t26.5 -44l6 -18q6 7 16 19t43 42.5t67 53.5t83.5 42t97.5 19q313 0 313 -430v-614h-151v594q0 167 -44.5 242t-148.5 75q-38 0 -76.5 -16.5t-67 -40.5t-51.5 -47.5 t-35 -40.5l-11 -16q8 -70 8 -148v-602h-154v582q0 174 -43.5 251.5t-140.5 77.5q-36 0 -76.5 -19.5t-72 -47.5t-58 -56t-40.5 -48l-15 -19v-721h-154z" />
<glyph unicode="n" horiz-adv-x="1026" d="M135 0v1024h152l2 -154q5 7 14.5 19t40.5 42t63.5 52.5t81.5 41.5t97 19q313 0 313 -407v-637h-151v594q0 166 -45 241.5t-148 75.5q-38 0 -79.5 -19.5t-73.5 -47.5t-58.5 -56t-40.5 -48l-14 -19v-721h-154z" />
<glyph unicode="o" horiz-adv-x="995" d="M96 522q0 102 11.5 180t39 144t73 108.5t115 66t163.5 23.5q116 0 195 -34.5t124 -105t63.5 -162.5t18.5 -220q0 -75 -4 -132.5t-14.5 -116t-29 -101t-49 -80.5t-72 -61.5t-100 -37t-132.5 -13.5t-132.5 13.5t-100.5 37t-72 61.5t-49 80.5t-29.5 101t-14.5 116t-4 132.5z M244 522q0 -70 2.5 -117.5t11 -98.5t26 -83t45 -59t70 -39t99.5 -12t99.5 12t70 39t45 59t26 83t11 98.5t2.5 117.5q0 206 -54 297.5t-200 91.5t-200 -91.5t-54 -297.5z" />
<glyph unicode="p" horiz-adv-x="1007" d="M135 -455v1479h152l2 -152q5 7 13.5 18.5t37.5 41t60 52.5t78 41.5t95 18.5q98 0 165 -35.5t105 -106t54 -161.5t16 -217q0 -273 -93 -408.5t-310 -135.5q-44 0 -99.5 6.5t-88.5 13.5l-33 6v-461h-154zM289 133q115 -20 207 -20q147 0 204.5 100t57.5 311 q0 70 -4.5 123.5t-18 105t-35.5 85t-58.5 53.5t-86.5 20q-42 0 -85 -20t-74 -48.5t-56 -57t-38 -48.5l-13 -20v-584z" />
<glyph unicode="q" horiz-adv-x="1007" d="M96 498q0 282 96 414t320 132q48 0 138 -8.5t156 -17.5l66 -8v-1452h-151v587q-4 -7 -12.5 -18t-37.5 -39.5t-60.5 -50t-81 -39.5t-101.5 -18q-77 0 -135 26t-95 71t-60.5 112.5t-32.5 142t-9 166.5zM252 498q0 -194 44.5 -289.5t164.5 -95.5q39 0 80 19.5t72 47.5t56 56 t39 48l13 19v588q-134 20 -193 20q-152 0 -214 -92t-62 -321z" />
<glyph unicode="r" horiz-adv-x="643" d="M135 0v1024h154v-156q6 5 17 14.5t45 34.5t69.5 46.5t87 45t100.5 35.5v-161q-64 -16 -144 -52.5t-128 -64.5l-47 -29v-737h-154z" />
<glyph unicode="s" horiz-adv-x="874" d="M88 743q0 80 28.5 140.5t77 94.5t106 50t122.5 16q76 0 161 -8.5t132 -17.5l47 -8l-6 -123q-193 24 -328 24q-79 0 -132.5 -37.5t-53.5 -117.5q0 -77 47 -110t168 -56q43 -9 66.5 -14.5t59 -15.5t54.5 -18t45.5 -21t40.5 -27t30 -33.5t23.5 -42.5t13 -52.5t5.5 -64.5 q0 -178 -94 -249.5t-277 -71.5q-62 0 -145.5 10t-136.5 20l-52 10l10 125q214 -32 312 -32q121 0 175 38.5t54 135.5q0 30 -6 52t-22.5 38.5t-31 26.5t-47 19.5t-53.5 14t-67 13.5q-67 14 -110.5 27t-88.5 35t-70 51.5t-41 74t-16 104.5z" />
<glyph unicode="t" horiz-adv-x="663" d="M51 891v133h133v303h152v-303h289v-133h-289v-594q0 -90 31 -137t102 -47q27 0 67.5 3t67.5 6l27 3l8 -121q-118 -24 -188 -24q-148 0 -207.5 77t-59.5 232v602h-133z" />
<glyph unicode="u" horiz-adv-x="1028" d="M127 395v629h154v-594q0 -167 44 -242t148 -75q38 0 79.5 19.5t73.5 47.5t58.5 56t40.5 48l14 19v721h152v-1024h-150l-2 154q-5 -7 -14.5 -19t-40.5 -42t-63.5 -52.5t-81.5 -41.5t-97 -19q-165 0 -240 102.5t-75 312.5z" />
<glyph unicode="v" horiz-adv-x="915" d="M45 1024h156l225 -893h63l226 893h155l-272 -1024h-281z" />
<glyph unicode="w" horiz-adv-x="1490" d="M59 1024h154l190 -891h41l220 871h163l217 -871h43l189 891h154l-220 -1024h-270l-195 797l-194 -797h-270z" />
<glyph unicode="x" horiz-adv-x="854" d="M43 0l299 508l-299 516h160l227 -403l225 403h156l-299 -514l299 -510h-158l-227 397l-227 -397h-156z" />
<glyph unicode="y" horiz-adv-x="917" d="M49 1024h152l225 -893h63l230 893h151l-393 -1479h-147l129 455h-142z" />
<glyph unicode="z" horiz-adv-x="862" d="M78 0v131l534 760h-534v133h706v-129l-534 -762h534v-133h-706z" />
<glyph unicode="{" horiz-adv-x="679" d="M49 571v129q33 7 64 21t61.5 38.5t49 63.5t18.5 88q0 39 -7.5 137t-7.5 132q0 189 88 274t285 88l2 -139q-130 -3 -175.5 -52t-45.5 -163q0 -15 7 -131t7 -135q0 -86 -20 -140.5t-57.5 -86t-104.5 -56.5q93 -34 137.5 -101.5t44.5 -175.5q0 -30 -7 -140.5t-7 -147.5 q0 -99 60 -146t161 -49l-2 -139q-82 2 -147 20t-117 56t-80.5 104t-28.5 156q0 35 7.5 140t7.5 136q0 42 -12.5 76.5t-29 55t-44 38.5t-46.5 26t-47 18q-10 3 -14 5z" />
<glyph unicode="|" horiz-adv-x="444" d="M145 -455v1925h154v-1925h-154z" />
<glyph unicode="}" horiz-adv-x="679" d="M78 -123q130 3 175.5 52t45.5 163q0 15 -7 131t-7 135q0 86 20 140.5t57.5 86t104.5 56.5q-93 34 -137.5 101.5t-44.5 175.5q0 30 7 140.5t7 147.5q0 99 -60 146t-161 49l2 139q82 -2 147 -20t117 -56t80.5 -104t28.5 -156q0 -35 -7.5 -140t-7.5 -136q0 -42 12.5 -76.5 t29 -55t44 -38.5t46.5 -26t47 -18q10 -3 14 -5v-129q-33 -7 -64 -21t-61.5 -38.5t-49 -63.5t-18.5 -88q0 -39 7.5 -137t7.5 -132q0 -189 -88 -274t-285 -88z" />
<glyph unicode="~" d="M135 557q5 4 14.5 11.5t37.5 26.5t55.5 33t64.5 26t68 12q60 0 212 -62.5t195 -62.5q34 0 86 23.5t88 47.5l35 23l21 -125q-5 -5 -13.5 -12t-35 -26.5t-52.5 -34t-62 -26.5t-67 -12q-49 0 -133.5 31.5t-163 63.5t-112.5 32q-37 0 -91 -24t-89 -48l-35 -24z" />
<glyph unicode="&#xa1;" horiz-adv-x="438" d="M139 -410l8 963h144l4 -963h-156zM139 797v227h156v-227h-156z" />
<glyph unicode="&#xa2;" d="M223 508q0 417 346 440v244h127v-248l195 -20l-6 -138q-176 17 -250 17q-141 0 -198.5 -67.5t-57.5 -227.5q0 -75 10 -124.5t38.5 -89t82 -57.5t137.5 -18q33 0 93 3.5t104 7.5l43 3l6 -131q-115 -16 -195 -22v-244h-129v240q-78 2 -138.5 26t-99 63t-63.5 95t-35 116.5 t-10 131.5z" />
<glyph unicode="&#xa3;" d="M160 0v133h190v596h-153v133h153v105q0 84 6 142.5t23.5 115.5t49.5 91t85.5 54.5t128.5 20.5q36 0 106 -8.5t121 -17.5l52 -9l-4 -123q-175 20 -259 20q-25 0 -45 -5t-34.5 -12.5t-26 -22.5t-19 -27.5t-13 -36t-8 -40.5t-4 -47.5t-1.5 -50v-55.5v-94h387v-133h-387v-596 h293l151 33l23 -129l-156 -37h-659z" />
<glyph unicode="&#xa4;" d="M119 170l143 143q-60 92 -60 203t60 203l-143 143l108 109l144 -146q92 60 202.5 60t202.5 -60l144 146l108 -109l-145 -143q60 -92 60 -203t-60 -203l145 -143l-108 -109l-144 144q-92 -60 -202.5 -60t-202.5 60l-144 -144zM350 516q0 -94 64 -160q66 -64 159.5 -64 t159.5 64q65 66 65 160t-65 160q-66 64 -159.5 64t-159.5 -64q-64 -66 -64 -160z" />
<glyph unicode="&#xa5;" d="M55 1354h174l346 -590l340 590h177l-338 -582h247v-139h-327l-21 -31v-137h348v-139h-348v-326h-155v326h-353v139h353v137l-19 31h-334v139h250z" />
<glyph unicode="&#xa6;" horiz-adv-x="452" d="M150 319h153v-774h-153v774zM150 705v765h153v-765h-153z" />
<glyph unicode="&#xa7;" horiz-adv-x="952" d="M94 522q0 118 109 254q-46 43 -66 91t-20 137q0 153 94 240t283 87q56 0 135 -8.5t129 -17.5l51 -9l-6 -135q-211 29 -303 29q-114 0 -176 -40t-62 -136t56 -134.5t221 -72.5q62 -13 106 -26.5t85 -36.5t66 -53t39.5 -75.5t14.5 -105.5q0 -71 -28.5 -147.5t-53.5 -118.5 q68 -57 68 -203q0 -344 -367 -344q-56 0 -141 8.5t-142 16.5l-57 8l14 135q212 -29 318 -29q117 0 176 48t59 149q0 31 -7 54.5t-25.5 41t-37 29t-56.5 23t-67 18.5t-85 18q-85 17 -140.5 37t-99.5 54.5t-64 86.5t-20 127zM240 545q0 -86 48.5 -124t168.5 -61 q140 -26 196 -57q5 7 16 33t22 71t11 85q0 39 -11.5 67.5t-26.5 45.5t-45.5 30.5t-53 19.5t-63.5 15q-16 4 -52.5 12.5t-59.5 13.5t-49 13t-38 14q-63 -105 -63 -178z" />
<glyph unicode="&#xa8;" horiz-adv-x="1392" d="M195 1270v190h127v-190h-127zM569 1270v190h123v-190h-123z" />
<glyph unicode="&#xa9;" horiz-adv-x="1294" d="M106 889q0 237 154.5 398t386.5 161q155 0 279 -75.5t192 -203t68 -280.5q0 -156 -68 -283t-192.5 -201.5t-280.5 -74.5q-152 0 -276 74.5t-193.5 202.5t-69.5 282zM197 889q0 -128 57.5 -235.5t161 -170.5t229.5 -63q193 0 322 136t129 333q0 128 -58 236t-162 171.5 t-231 63.5q-191 0 -319.5 -137.5t-128.5 -333.5zM414 891q0 166 54 242.5t189 76.5q38 0 77 -5t59 -10l20 -5l-6 -109q-79 13 -145 13q-75 0 -99 -46.5t-24 -156.5q0 -108 26.5 -158.5t96.5 -50.5q27 0 63.5 3.5t58.5 6.5l23 4l6 -106q-76 -25 -160 -25q-132 0 -185.5 77 t-53.5 249z" />
<glyph unicode="&#xaa;" horiz-adv-x="772" d="M102 920q0 84 48.5 127t148.5 49l180 12v45q0 44 -24.5 63t-75.5 19q-35 0 -94 -3.5t-101 -7.5l-41 -3l-4 98q142 31 246 31q114 0 169.5 -45.5t55.5 -157.5v-281q18 -24 62 -35l-4 -100q-79 0 -111.5 11.5t-60.5 41.5q-12 -6 -33.5 -15t-80 -23.5t-106.5 -14.5 q-81 0 -127.5 51t-46.5 138zM238 922q0 -80 73 -80q32 0 74 8.5t68 17.5l26 9v137l-157 -10q-45 -3 -64.5 -22t-19.5 -60z" />
<glyph unicode="&#xab;" horiz-adv-x="1021" d="M291 469v78l364 291v-21l25 21v-140l-242 -188l242 -207v-141l-25 20v-20z" />
<glyph unicode="&#xac;" d="M133 561v139h877v-460h-144v321h-733z" />
<glyph unicode="&#xad;" horiz-adv-x="770" d="M129 477v141h514v-141h-514z" />
<glyph unicode="&#xae;" horiz-adv-x="1294" d="M106 889q0 116 41 219.5t112 178t171.5 118t214.5 43.5q156 0 280.5 -75.5t192.5 -203t68 -280.5q0 -156 -68 -283t-192.5 -201.5t-280.5 -74.5q-152 0 -276 74.5t-193.5 202.5t-69.5 282zM197 889q0 -195 129 -332t319 -137q193 0 322 136t129 333q0 128 -58 236 t-162 171.5t-231 63.5q-190 0 -319 -138t-129 -333zM422 578v620h225q116 0 175 -44.5t59 -149.5q0 -76 -23.5 -120.5t-81.5 -70.5l115 -235h-127l-100 219h-123v-219h-119zM539 893h123q54 0 78 24.5t24 79.5t-31 80t-96 25h-98v-209z" />
<glyph unicode="&#xaf;" horiz-adv-x="899" d="M160 1309v121h561v-121h-561z" />
<glyph unicode="&#xb0;" d="M283 1149q0 129 80.5 209t209.5 80t210 -80t81 -209q0 -130 -80.5 -209.5t-210.5 -79.5q-129 0 -209.5 79.5t-80.5 209.5zM387 1149q0 -86 50.5 -138.5t135.5 -52.5t138 52.5t53 138.5q0 85 -53 137.5t-138 52.5q-84 0 -135 -52.5t-51 -137.5z" />
<glyph unicode="&#xb1;" d="M113 78v139h921v-139h-921zM113 600v139h387v258h143v-258h391v-139h-391v-260h-143v260h-387z" />
<glyph unicode="&#xb2;" horiz-adv-x="573" d="M63 979v115l181 176q53 51 77.5 89t24.5 81q0 73 -100 73q-26 0 -69 -5t-73 -10l-30 -5l-6 121q123 24 211 24q105 0 154.5 -45t49.5 -141q0 -67 -30.5 -119.5t-96.5 -111.5l-123 -123h259v-119h-429z" />
<glyph unicode="&#xb3;" horiz-adv-x="573" d="M61 979l9 115q116 -15 204 -15q103 0 103 84q0 86 -96 86h-134v111h134q29 0 53 26.5t24 63.5q0 36 -21.5 52t-70.5 16q-39 0 -86 -4t-74 -8l-28 -3l-8 115q121 20 209 20q110 0 163.5 -42t53.5 -130q0 -94 -82 -153q51 -17 74.5 -49.5t23.5 -106.5q0 -99 -57 -149 t-162 -50q-44 0 -102 5t-94 11z" />
<glyph unicode="&#xb4;" horiz-adv-x="1118" d="M242 1335l422 197l47 -135l-426 -176z" />
<glyph unicode="&#xb5;" d="M190 -455v1479h154v-594q0 -167 44.5 -242t148.5 -75q38 0 79.5 19.5t73.5 47.5t58.5 56t40.5 48l14 19v721h151v-1024h-149l-2 154q-5 -7 -14.5 -19t-40.5 -42t-63.5 -52.5t-81.5 -41.5t-97 -19q-98 0 -162 34v-469h-154z" />
<glyph unicode="&#xb6;" horiz-adv-x="1134" d="M66 1026q0 87 20.5 159t62.5 129t112.5 88.5t162.5 31.5h635v-131h-139v-1303h-129v1303h-226v-1303h-131v680q-162 0 -265 101.5t-103 244.5z" />
<glyph unicode="&#xb7;" horiz-adv-x="413" d="M129 502v239h158v-239h-158z" />
<glyph unicode="&#xb8;" horiz-adv-x="1619" d="M739 -418l6 105q76 -6 127 -6q86 0 86 73q0 66 -86 66h-81v190h79v-102h17q43 0 75 -6.5t62.5 -23t46.5 -50t16 -82.5q0 -89 -48.5 -133.5t-133.5 -44.5q-37 0 -78.5 3.5t-64.5 6.5z" />
<glyph unicode="&#xb9;" horiz-adv-x="573" d="M68 1475l206 143h123v-639h-131v496l-139 -97z" />
<glyph unicode="&#xba;" horiz-adv-x="739" d="M100 1042q0 308 269 308q184 0 239 -129q31 -71 31 -179q0 -315 -270 -315q-222 0 -260 215q-9 46 -9 100zM231 1042q0 -7 7 -77q10 -64 40.5 -89.5t90.5 -25.5q77 0 108 41.5t31 150.5q0 34 -4 74q-10 62 -41.5 86.5t-93.5 24.5q-75 0 -106.5 -41t-31.5 -144z" />
<glyph unicode="&#xbb;" horiz-adv-x="1038" d="M356 172v139l242 189l-242 207v141l11 -8v8l364 -307v-78l-364 -291v8z" />
<glyph unicode="&#xbc;" horiz-adv-x="1159" d="M37 1475l207 143h123v-639h-131v496l-140 -97zM182 31l541 1417l141 -51l-540 -1417zM629 98v113l141 428h143l-149 -420h154l10 180h119v-180h55v-121h-55v-98h-129v98h-289z" />
<glyph unicode="&#xbd;" horiz-adv-x="1206" d="M37 1475l207 143h123v-639h-131v496l-140 -97zM182 31l541 1417l141 -51l-540 -1417zM702 0v115l181 176q53 51 77.5 89t24.5 81q0 74 -100 74q-26 0 -69 -5.5t-73 -10.5l-30 -5l-6 121q123 24 211 24q105 0 154.5 -45t49.5 -141q0 -67 -30.5 -119.5t-96.5 -111.5 l-123 -123h258v-119h-428z" />
<glyph unicode="&#xbe;" horiz-adv-x="1206" d="M76 979l8 115q117 -15 205 -15q102 0 102 84q0 86 -96 86h-133v111h133q29 0 53.5 26.5t24.5 63.5q0 36 -21.5 52t-70.5 16q-39 0 -86.5 -4t-74.5 -8l-28 -3l-8 115q121 20 209 20q110 0 163.5 -42t53.5 -130q0 -94 -82 -153q51 -17 74.5 -49.5t23.5 -106.5 q0 -99 -57 -149t-162 -50q-44 0 -102 5t-93 11zM233 31l541 1417l141 -51l-540 -1417zM680 98v113l141 428h144l-150 -420h154l10 180h119v-180h55v-121h-55v-98h-129v98h-289z" />
<glyph unicode="&#xbf;" horiz-adv-x="827" d="M66 -68q0 94 44 171.5t171 218.5q62 69 91 119t29 102v82h148q10 -60 10 -105q0 -78 -34.5 -135.5t-135.5 -171.5q-98 -112 -130 -165t-32 -116q0 -119 54 -161.5t182 -42.5q50 0 122.5 10t119.5 20l47 11l18 -125q-196 -56 -319 -56q-200 0 -292.5 78t-92.5 266z M401 786v238h160v-238h-160z" />
<glyph unicode="&#xc0;" horiz-adv-x="1132" d="M45 0l367 1417h309l364 -1417h-155l-99 360h-530l-98 -360h-158zM270 1774l49 133l422 -193l-45 -117zM332 500h467l-203 778h-59z" />
<glyph unicode="&#xc1;" horiz-adv-x="1132" d="M45 0l367 1417h309l364 -1417h-155l-99 360h-530l-98 -360h-158zM332 500h467l-203 778h-59zM391 1720l422 197l49 -133l-426 -176z" />
<glyph unicode="&#xc2;" horiz-adv-x="1132" d="M45 0l367 1417h309l364 -1417h-155l-99 360h-530l-98 -360h-158zM250 1624l268 283h84l270 -283h-149l-162 166l-162 -166h-149zM332 500h467l-203 778h-59z" />
<glyph unicode="&#xc3;" horiz-adv-x="1132" d="M45 0l367 1417h309l364 -1417h-155l-99 360h-530l-98 -360h-158zM233 1769q12 14 33 35t71 55.5t85 34.5q42 0 107.5 -28t123 -56t80.5 -28q18 0 54.5 23t64.5 46l27 23l32 -105q-4 -5 -12 -13t-30.5 -29t-43 -37.5t-46.5 -29.5t-46 -13q-48 0 -166 57t-149 57 q-21 0 -60 -24.5t-68 -48.5l-28 -25zM332 500h467l-203 778h-59z" />
<glyph unicode="&#xc4;" horiz-adv-x="1132" d="M45 0l367 1417h309l364 -1417h-155l-99 360h-530l-98 -360h-158zM313 1667v191h125v-191h-125zM332 500h467l-203 778h-59zM698 1667v191h123v-191h-123z" />
<glyph unicode="&#xc5;" horiz-adv-x="1132" d="M45 0l354 1374q-45 51 -45 142q0 102 57 153t158 51q97 0 155 -52t58 -152q0 -92 -51 -146l354 -1370h-155l-99 360h-530l-98 -360h-158zM332 500h467l-203 778h-59zM457 1516q0 -45 27 -71t75 -28h10q52 0 80.5 26t28.5 73t-28 72.5t-81 25.5t-82.5 -25.5t-29.5 -72.5z " />
<glyph unicode="&#xc6;" horiz-adv-x="1587" d="M45 0l369 1425h1087v-147h-647v-487h530v-142h-530v-502h647v-147h-794v362h-416l-96 -362h-150zM324 508h383v770h-183z" />
<glyph unicode="&#xc7;" horiz-adv-x="1026" d="M109 707q0 144 13.5 253.5t47 202t88 151.5t137.5 91.5t195 32.5q76 0 166 -11t142 -21l52 -11l-10 -131q-193 34 -330 34q-83 0 -143 -27t-98 -74t-60 -123.5t-30.5 -162.5t-8.5 -204q0 -114 8 -198t30 -161t59.5 -125t99 -76t145.5 -28q55 0 137 8.5t137 17.5l54 9 l8 -131q-190 -41 -350 -43v-72h16q43 0 75.5 -6.5t62.5 -23t46.5 -50t16.5 -82.5q0 -89 -48.5 -133.5t-133.5 -44.5q-37 0 -78.5 3.5t-64.5 6.5l-23 4l6 105q76 -6 127 -6q86 0 86 73q0 66 -86 66h-82v164q-98 10 -170 48.5t-117.5 98t-73 150t-38 191.5t-10.5 235z" />
<glyph unicode="&#xc8;" horiz-adv-x="1038" d="M158 0v1417h792v-139h-637v-487h523v-140h-523v-512h637v-139h-792zM272 1774l50 133l421 -193l-45 -117z" />
<glyph unicode="&#xc9;" horiz-adv-x="1038" d="M158 0v1417h792v-139h-637v-487h523v-140h-523v-512h637v-139h-792zM348 1720l422 197l49 -133l-426 -176z" />
<glyph unicode="&#xca;" horiz-adv-x="1038" d="M158 0v1417h792v-139h-637v-487h523v-140h-523v-512h637v-139h-792zM242 1626l268 283h84l270 -283h-149l-162 166l-162 -166h-149z" />
<glyph unicode="&#xcb;" horiz-adv-x="1038" d="M158 0v1417h792v-139h-637v-487h523v-140h-523v-512h637v-139h-792zM315 1667v191h125v-191h-125zM700 1667v191h123v-191h-123z" />
<glyph unicode="&#xcc;" horiz-adv-x="471" d="M-104 1774l49 133l422 -193l-45 -117zM158 0v1417h155v-1417h-155z" />
<glyph unicode="&#xcd;" horiz-adv-x="471" d="M92 1720l422 197l49 -133l-426 -176zM158 0v1417h155v-1417h-155z" />
<glyph unicode="&#xce;" horiz-adv-x="471" d="M-78 1620l268 283h84l271 -283h-150l-162 166l-161 -166h-150zM158 0v1417h155v-1417h-155z" />
<glyph unicode="&#xcf;" horiz-adv-x="471" d="M-18 1677v191h124v-191h-124zM158 0v1417h155v-1417h-155zM367 1677v191h122v-191h-122z" />
<glyph unicode="&#xd0;" horiz-adv-x="1236" d="M33 633v158h133v626h469q140 0 234.5 -39.5t151.5 -126t81 -210.5t24 -306q0 -190 -23 -321t-78 -227t-151 -141.5t-239 -45.5h-469v633h-133zM322 139h313q80 0 138 27t94.5 75t58 125t29.5 164t8 205q0 116 -8 198t-29.5 151t-58.5 109.5t-94 62.5t-138 22h-313v-487 h294v-158h-294v-494z" />
<glyph unicode="&#xd1;" horiz-adv-x="1288" d="M158 0v1417h274l510 -1255h37v1255h151v-1417h-270l-512 1262h-35v-1262h-155zM309 1765q12 14 33 35t71 55.5t85 34.5q42 0 107.5 -28t123 -56t80.5 -28q18 0 54.5 23t63.5 46l27 23l33 -105q-12 -14 -32 -34.5t-67.5 -54.5t-78.5 -34q-48 0 -166 57.5t-149 57.5 q-21 0 -60 -24.5t-68 -48.5l-28 -25z" />
<glyph unicode="&#xd2;" horiz-adv-x="1253" d="M109 721q0 267 44.5 421t159.5 224q112 72 314 72q105 0 184 -18t137 -58t95.5 -95.5t60.5 -139t32 -180t9 -226.5q0 -279 -48 -441t-173 -235q-107 -65 -297 -65q-125 0 -214.5 30t-148.5 86t-93 149t-48 206t-14 270zM272 721q0 -112 4.5 -189.5t18 -150t38 -117.5 t64 -80t96 -50t134.5 -15q118 0 184 35q102 51 136 181t34 386q0 112 -4.5 187.5t-18 145.5t-37.5 112t-64 74t-96 45t-134 13q-115 0 -181 -28q-106 -45 -140 -168.5t-34 -380.5zM352 1774l49 133l422 -193l-45 -117z" />
<glyph unicode="&#xd3;" horiz-adv-x="1253" d="M109 721q0 267 44.5 421t159.5 224q112 72 314 72q105 0 184 -18t137 -58t95.5 -95.5t60.5 -139t32 -180t9 -226.5q0 -279 -48 -441t-173 -235q-107 -65 -297 -65q-125 0 -214.5 30t-148.5 86t-93 149t-48 206t-14 270zM272 721q0 -112 4.5 -189.5t18 -150t38 -117.5 t64 -80t96 -50t134.5 -15q118 0 184 35q102 51 136 181t34 386q0 112 -4.5 187.5t-18 145.5t-37.5 112t-64 74t-96 45t-134 13q-115 0 -181 -28q-106 -45 -140 -168.5t-34 -380.5zM436 1720l422 197l49 -133l-426 -176z" />
<glyph unicode="&#xd4;" horiz-adv-x="1253" d="M109 721q0 267 44.5 421t159.5 224q112 72 314 72q105 0 184 -18t137 -58t95.5 -95.5t60.5 -139t32 -180t9 -226.5q0 -279 -48 -441t-173 -235q-107 -65 -297 -65q-125 0 -214.5 30t-148.5 86t-93 149t-48 206t-14 270zM272 721q0 -112 4.5 -189.5t18 -150t38 -117.5 t64 -80t96 -50t134.5 -15q118 0 184 35q102 51 136 181t34 386q0 112 -4.5 187.5t-18 145.5t-37.5 112t-64 74t-96 45t-134 13q-115 0 -181 -28q-106 -45 -140 -168.5t-34 -380.5zM315 1624l269 283h84l270 -283h-150l-161 166l-162 -166h-150z" />
<glyph unicode="&#xd5;" horiz-adv-x="1253" d="M109 721q0 267 44.5 421t159.5 224q112 72 314 72q105 0 184 -18t137 -58t95.5 -95.5t60.5 -139t32 -180t9 -226.5q0 -279 -48 -441t-173 -235q-107 -65 -297 -65q-125 0 -214.5 30t-148.5 86t-93 149t-48 206t-14 270zM272 721q0 -112 4.5 -189.5t18 -150t38 -117.5 t64 -80t96 -50t134.5 -15q118 0 184 35q102 51 136 181t34 386q0 112 -4.5 187.5t-18 145.5t-37.5 112t-64 74t-96 45t-134 13q-115 0 -181 -28q-106 -45 -140 -168.5t-34 -380.5zM297 1765q4 5 12 13.5t31.5 30t45 38t49.5 30t50 13.5q42 0 108 -28t123.5 -56t80.5 -28 q18 0 54.5 23t63.5 46l27 23l33 -105q-12 -14 -32 -34.5t-67.5 -54.5t-78.5 -34q-48 0 -166.5 57.5t-149.5 57.5q-21 0 -59.5 -24.5t-67.5 -48.5l-28 -25z" />
<glyph unicode="&#xd6;" horiz-adv-x="1253" d="M109 721q0 267 44.5 421t159.5 224q112 72 314 72q105 0 184 -18t137 -58t95.5 -95.5t60.5 -139t32 -180t9 -226.5q0 -279 -48 -441t-173 -235q-107 -65 -297 -65q-125 0 -214.5 30t-148.5 86t-93 149t-48 206t-14 270zM272 721q0 -112 4.5 -189.5t18 -150t38 -117.5 t64 -80t96 -50t134.5 -15q118 0 184 35q102 51 136 181t34 386q0 112 -4.5 187.5t-18 145.5t-37.5 112t-64 74t-96 45t-134 13q-115 0 -181 -28q-106 -45 -140 -168.5t-34 -380.5zM365 1671v191h141v-191h-141zM752 1671v191h139v-191h-139z" />
<glyph unicode="&#xd7;" d="M145 184l332 330l-332 328l101 98l327 -332l330 334l98 -98l-333 -330l333 -330l-98 -98l-330 332l-329 -332z" />
<glyph unicode="&#xd8;" horiz-adv-x="1253" d="M109 721q0 267 44.5 421t159.5 224q112 72 314 72q149 0 252 -41l104 235l104 -41l-112 -250q94 -78 132 -227t38 -393q0 -279 -48 -441t-173 -235q-107 -65 -297 -65q-147 0 -238 36l-110 -249l-101 47l113 258q-101 80 -141.5 236t-40.5 413zM272 721q0 -198 17.5 -315 t68.5 -185l222 502l239 541q-72 34 -192 34q-115 0 -181 -28q-106 -45 -140 -168.5t-34 -380.5zM449 150q70 -31 178 -31q118 0 184 35q102 51 136 181t34 386q0 179 -16 289t-58 176l-225 -510z" />
<glyph unicode="&#xd9;" horiz-adv-x="1222" d="M150 432v985h155v-995q0 -161 73 -232t232 -71q160 0 232.5 70.5t72.5 232.5v995h158v-985q0 -233 -113 -342.5t-350 -109.5q-235 0 -347.5 109.5t-112.5 342.5zM344 1774l49 133l422 -193l-45 -117z" />
<glyph unicode="&#xda;" horiz-adv-x="1222" d="M150 432v985h155v-995q0 -161 73 -232t232 -71q160 0 232.5 70.5t72.5 232.5v995h158v-985q0 -233 -113 -342.5t-350 -109.5q-235 0 -347.5 109.5t-112.5 342.5zM401 1720l422 197l49 -133l-426 -176z" />
<glyph unicode="&#xdb;" horiz-adv-x="1222" d="M150 432v985h155v-995q0 -161 73 -232t232 -71q160 0 232.5 70.5t72.5 232.5v995h158v-985q0 -233 -113 -342.5t-350 -109.5q-235 0 -347.5 109.5t-112.5 342.5zM152 1786l268 282h84l270 -282h-149l-162 166l-162 -166h-149z" />
<glyph unicode="&#xdc;" horiz-adv-x="1222" d="M150 432v985h155v-995q0 -161 73 -232t232 -71q160 0 232.5 70.5t72.5 232.5v995h158v-985q0 -233 -113 -342.5t-350 -109.5q-235 0 -347.5 109.5t-112.5 342.5zM348 1671v191h141v-191h-141zM737 1671v191h137v-191h-137z" />
<glyph unicode="&#xdd;" horiz-adv-x="1019" d="M20 1417h170l320 -653l317 653h168l-409 -823v-594h-150v594zM336 1720l422 197l49 -133l-426 -176z" />
<glyph unicode="&#xde;" horiz-adv-x="1134" d="M158 0v1425h153v-227h316q200 0 318 -116.5t118 -354.5q0 -228 -110.5 -354.5t-325.5 -126.5h-316v-246h-153zM311 385h314q139 0 206.5 93t67.5 249q0 54 -9 101.5t-29.5 90t-51.5 72.5t-78 48t-106 18h-314v-672z" />
<glyph unicode="&#xdf;" horiz-adv-x="1091" d="M135 0v1100q0 114 22.5 190.5t71 120.5t116.5 62t169 18q204 0 289.5 -68t85.5 -225q0 -73 -16 -121t-48.5 -80t-91.5 -63q-68 -37 -92.5 -61.5t-24.5 -61.5q0 -41 31 -69t125 -78q75 -39 117 -66.5t76.5 -65t47.5 -82.5t13 -110q0 -193 -84.5 -276.5t-269.5 -83.5 q-45 0 -108 6t-104 12l-40 6l6 119q164 -10 217 -10q132 0 184 52.5t52 166.5q0 79 -37.5 118.5t-165.5 106.5q-111 58 -159 109t-48 135q0 82 31 126t123 91q68 37 93 74t25 100q0 97 -49.5 131.5t-177.5 34.5q-62 0 -102 -10t-71.5 -37.5t-45.5 -78.5t-14 -130v-1102h-146 z" />
<glyph unicode="&#xe0;" horiz-adv-x="1009" d="M96 492q0 103 10.5 183t38.5 151.5t73.5 117.5t118 73t169.5 27q52 0 144 -8.5t158 -17.5l66 -8v-758q0 -43 3 -105.5t7 -103.5l3 -41l-154 -6q-10 94 -10 176q-5 -8 -13.5 -21t-37.5 -46t-61.5 -58t-83 -46t-103.5 -21q-178 0 -253 125.5t-75 386.5zM252 492 q0 -90 9 -155t31 -118t62.5 -79.5t100.5 -26.5q44 0 87.5 22t74 53.5t55 62.5t36.5 53l13 22v567q-142 18 -197 18q-82 0 -135.5 -26t-83.5 -82t-41.5 -129t-11.5 -182zM285 1403l47 127l422 -193l-41 -110z" />
<glyph unicode="&#xe1;" horiz-adv-x="1009" d="M96 492q0 103 10.5 183t38.5 151.5t73.5 117.5t118 73t169.5 27q52 0 144 -8.5t158 -17.5l66 -8v-758q0 -43 3 -105.5t7 -103.5l3 -41l-154 -6q-10 94 -10 176q-5 -8 -13.5 -21t-37.5 -46t-61.5 -58t-83 -46t-103.5 -21q-178 0 -253 125.5t-75 386.5zM252 492 q0 -90 9 -155t31 -118t62.5 -79.5t100.5 -26.5q44 0 87.5 22t74 53.5t55 62.5t36.5 53l13 22v567q-142 18 -197 18q-82 0 -135.5 -26t-83.5 -82t-41.5 -129t-11.5 -182zM369 1335l422 197l47 -135l-426 -176z" />
<glyph unicode="&#xe2;" horiz-adv-x="1009" d="M96 492q0 103 10.5 183t38.5 151.5t73.5 117.5t118 73t169.5 27q52 0 144 -8.5t158 -17.5l66 -8v-758q0 -43 3 -105.5t7 -103.5l3 -41l-154 -6q-10 94 -10 176q-5 -8 -13.5 -21t-37.5 -46t-61.5 -58t-83 -46t-103.5 -21q-178 0 -253 125.5t-75 386.5zM223 1202l248 309 h111l249 -309h-163l-140 174l-143 -174h-162zM252 492q0 -90 9 -155t31 -118t62.5 -79.5t100.5 -26.5q44 0 87.5 22t74 53.5t55 62.5t36.5 53l13 22v567q-142 18 -197 18q-82 0 -135.5 -26t-83.5 -82t-41.5 -129t-11.5 -182z" />
<glyph unicode="&#xe3;" horiz-adv-x="1009" d="M96 492q0 103 10.5 183t38.5 151.5t73.5 117.5t118 73t169.5 27q52 0 144 -8.5t158 -17.5l66 -8v-758q0 -43 3 -105.5t7 -103.5l3 -41l-154 -6q-10 94 -10 176q-5 -8 -13.5 -21t-37.5 -46t-61.5 -58t-83 -46t-103.5 -21q-178 0 -253 125.5t-75 386.5zM240 1378 q4 5 11 12.5t28.5 27t42 34.5t47.5 27t49 12q47 0 153.5 -49t128.5 -49q19 0 52.5 20t57.5 40l24 20l30 -109q-11 -12 -28.5 -30t-61.5 -47.5t-76 -29.5q-46 0 -151.5 49.5t-132.5 49.5q-22 0 -58.5 -21.5t-61.5 -42.5l-26 -22zM252 492q0 -90 9 -155t31 -118t62.5 -79.5 t100.5 -26.5q44 0 87.5 22t74 53.5t55 62.5t36.5 53l13 22v567q-142 18 -197 18q-82 0 -135.5 -26t-83.5 -82t-41.5 -129t-11.5 -182z" />
<glyph unicode="&#xe4;" horiz-adv-x="1009" d="M96 492q0 103 10.5 183t38.5 151.5t73.5 117.5t118 73t169.5 27q52 0 144 -8.5t158 -17.5l66 -8v-758q0 -43 3 -105.5t7 -103.5l3 -41l-154 -6q-10 94 -10 176q-5 -8 -13.5 -21t-37.5 -46t-61.5 -58t-83 -46t-103.5 -21q-178 0 -253 125.5t-75 386.5zM250 1270v190h141 v-190h-141zM252 492q0 -90 9 -155t31 -118t62.5 -79.5t100.5 -26.5q44 0 87.5 22t74 53.5t55 62.5t36.5 53l13 22v567q-142 18 -197 18q-82 0 -135.5 -26t-83.5 -82t-41.5 -129t-11.5 -182zM639 1270v190h137v-190h-137z" />
<glyph unicode="&#xe5;" horiz-adv-x="1009" d="M96 492q0 103 10.5 183t38.5 151.5t73.5 117.5t118 73t169.5 27q52 0 144 -8.5t158 -17.5l66 -8v-758q0 -43 3 -105.5t7 -103.5l3 -41l-154 -6q-10 94 -10 176q-5 -8 -13.5 -21t-37.5 -46t-61.5 -58t-83 -46t-103.5 -21q-178 0 -253 125.5t-75 386.5zM252 492 q0 -90 9 -155t31 -118t62.5 -79.5t100.5 -26.5q44 0 87.5 22t74 53.5t55 62.5t36.5 53l13 22v567q-142 18 -197 18q-82 0 -135.5 -26t-83.5 -82t-41.5 -129t-11.5 -182zM360 1356q0 87 52 143.5t137 56.5q82 0 132 -56t50 -144q0 -92 -50 -146.5t-132 -54.5q-88 0 -138.5 54 t-50.5 147zM453 1356q0 -42 27.5 -71.5t68.5 -29.5q38 0 64 29.5t26 71.5q0 41 -26 68.5t-64 27.5q-41 0 -68.5 -27.5t-27.5 -68.5z" />
<glyph unicode="&#xe6;" horiz-adv-x="1536" d="M78 293q0 134 55 201.5t170 91.5q127 27 361 43v42.5t-1.5 40t-3.5 42t-7.5 36.5t-13 35.5t-20 27t-28 23.5t-37.5 13t-49 6q-64 0 -156 -5.5t-152 -11.5l-61 -6l-6 142q228 30 375 30q204 0 264 -153q96 153 301 153q286 0 356 -268q23 -95 23 -229v-103h-635 q0 -92 18 -159q48 -162 230 -162q61 0 148 4.5t143 8.5l57 5l4 -129q-198 -32 -360 -32q-197 0 -289 112q-241 -112 -418 -112q-130 0 -199 88.5t-69 224.5zM225 299q0 -46 12.5 -85t45.5 -68t82 -29q135 0 344 71q-47 106 -47 318q-103 -8 -277 -31q-83 -12 -121.5 -53 t-38.5 -123zM813 573h490q0 146 -35 220q-53 112 -203 112q-252 0 -252 -332z" />
<glyph unicode="&#xe7;" horiz-adv-x="817" d="M94 526q0 269 95.5 393.5t304.5 124.5q46 0 108 -7.5t100 -14.5l39 -8l-6 -123q-137 18 -211 18q-153 0 -212.5 -91t-59.5 -292q0 -84 5.5 -142t22 -113t46 -87t79 -51.5t119.5 -19.5q33 0 85.5 4t88.5 8l37 4l6 -121q-145 -28 -249 -28h-17v-72h17q43 0 75 -6.5 t62.5 -23t46.5 -50t16 -82.5q0 -89 -48.5 -133.5t-133.5 -44.5q-37 0 -78.5 3.5t-64.5 6.5l-23 4l6 105q76 -6 127 -6q86 0 86 73q0 66 -86 66h-82v168q-72 11 -125 41t-86.5 74.5t-53.5 110t-28 140t-8 172.5z" />
<glyph unicode="&#xe8;" horiz-adv-x="927" d="M92 496q0 546 416 546q342 0 342 -274q0 -92 -29 -153t-93 -95.5t-152.5 -48.5t-221.5 -14h-106v-31q0 -149 59 -231t180 -82q64 0 143.5 9.5t127.5 19.5l47 10l8 -113q-17 -6 -46.5 -15.5t-117 -25.5t-170.5 -16q-203 0 -295 122t-92 392zM221 1403l47 127l422 -193 l-41 -110zM250 575h102q192 0 269 39.5t77 151.5q0 81 -48 115t-142 34q-134 0 -195 -86.5t-63 -253.5z" />
<glyph unicode="&#xe9;" horiz-adv-x="927" d="M92 496q0 546 416 546q342 0 342 -274q0 -92 -29 -153t-93 -95.5t-152.5 -48.5t-221.5 -14h-106v-31q0 -149 59 -231t180 -82q64 0 143.5 9.5t127.5 19.5l47 10l8 -113q-17 -6 -46.5 -15.5t-117 -25.5t-170.5 -16q-203 0 -295 122t-92 392zM250 575h102q192 0 269 39.5 t77 151.5q0 81 -48 115t-142 34q-134 0 -195 -86.5t-63 -253.5zM281 1335l421 197l48 -135l-426 -176z" />
<glyph unicode="&#xea;" horiz-adv-x="927" d="M92 496q0 546 416 546q342 0 342 -274q0 -92 -29 -153t-93 -95.5t-152.5 -48.5t-221.5 -14h-106v-31q0 -149 59 -231t180 -82q64 0 143.5 9.5t127.5 19.5l47 10l8 -113q-17 -6 -46.5 -15.5t-117 -25.5t-170.5 -16q-203 0 -295 122t-92 392zM193 1202l245 309h111 l250 -309h-162l-141 174l-142 -174h-161zM250 575h102q192 0 269 39.5t77 151.5q0 81 -48 115t-142 34q-134 0 -195 -86.5t-63 -253.5z" />
<glyph unicode="&#xeb;" horiz-adv-x="927" d="M92 496q0 546 416 546q342 0 342 -274q0 -92 -29 -153t-93 -95.5t-152.5 -48.5t-221.5 -14h-106v-31q0 -149 59 -231t180 -82q64 0 143.5 9.5t127.5 19.5l47 10l8 -113q-17 -6 -46.5 -15.5t-117 -25.5t-170.5 -16q-203 0 -295 122t-92 392zM244 1270v190h141v-190h-141z M250 575h102q192 0 269 39.5t77 151.5q0 81 -48 115t-142 34q-134 0 -195 -86.5t-63 -253.5zM633 1270v190h137v-190h-137z" />
<glyph unicode="&#xec;" horiz-adv-x="423" d="M-131 1403l47 127l422 -193l-41 -110zM135 0v1024h154v-1024h-154z" />
<glyph unicode="&#xed;" horiz-adv-x="423" d="M102 1335l422 197l47 -135l-426 -176zM135 0v1024h154v-1024h-154z" />
<glyph unicode="&#xee;" horiz-adv-x="423" d="M-90 1202l246 309h112l248 -309h-162l-141 174l-141 -174h-162zM135 0v1024h154v-1024h-154z" />
<glyph unicode="&#xef;" horiz-adv-x="423" d="M-49 1270v190h139v-190h-139zM135 0v1024h154v-1024h-154zM338 1270v190h137v-190h-137z" />
<glyph unicode="&#xf0;" horiz-adv-x="1054" d="M82 428q0 218 104.5 336.5t298.5 118.5q62 0 142 -18t129 -36l49 -18q-14 142 -81 239.5t-210 170.5l-207 -158l-69 94l153 117q-95 36 -209 65l31 138q178 -35 317 -97l183 138l71 -93l-139 -106q311 -194 311 -586q0 -273 -46 -437t-142.5 -239t-255.5 -75 q-212 0 -321 116.5t-109 329.5zM238 426q0 -133 69.5 -213t204.5 -80q106 0 168.5 50t93 166t31.5 315q-12 6 -53.5 21t-119.5 33.5t-138 18.5q-123 0 -189.5 -81.5t-66.5 -229.5z" />
<glyph unicode="&#xf1;" horiz-adv-x="1026" d="M135 0h154v721q5 8 14.5 20.5t39.5 45.5t59.5 58t72 45.5t80.5 20.5q103 0 148 -75.5t45 -241.5v-594h151v637q0 407 -313 407q-48 0 -96.5 -18t-83 -43.5t-62 -51t-41.5 -43.5l-14 -18l-2 154h-152v-1024zM225 1378q4 5 11 12.5t28.5 27t42 34.5t47.5 27t49 12 q47 0 154 -49t129 -49q19 0 52.5 20t57.5 40l23 20l31 -109q-11 -12 -28.5 -30t-61.5 -47.5t-76 -29.5q-46 0 -152 49.5t-133 49.5q-22 0 -58 -21.5t-61 -42.5l-26 -22z" />
<glyph unicode="&#xf2;" horiz-adv-x="995" d="M96 522q0 102 11.5 180t39 144t73 108.5t115 66t163.5 23.5q116 0 195 -34.5t124 -105t63.5 -162.5t18.5 -220q0 -75 -4 -132.5t-14.5 -116t-29 -101t-49 -80.5t-72 -61.5t-100 -37t-132.5 -13.5t-132.5 13.5t-100.5 37t-72 61.5t-49 80.5t-29.5 101t-14.5 116t-4 132.5z M221 1403l47 127l422 -193l-41 -110zM244 522q0 -70 2.5 -117.5t11 -98.5t26 -83t45 -59t70 -39t99.5 -12t99.5 12t70 39t45 59t26 83t11 98.5t2.5 117.5q0 206 -54 297.5t-200 91.5t-200 -91.5t-54 -297.5z" />
<glyph unicode="&#xf3;" horiz-adv-x="995" d="M96 522q0 102 11.5 180t39 144t73 108.5t115 66t163.5 23.5q116 0 195 -34.5t124 -105t63.5 -162.5t18.5 -220q0 -75 -4 -132.5t-14.5 -116t-29 -101t-49 -80.5t-72 -61.5t-100 -37t-132.5 -13.5t-132.5 13.5t-100.5 37t-72 61.5t-49 80.5t-29.5 101t-14.5 116t-4 132.5z M244 522q0 -70 2.5 -117.5t11 -98.5t26 -83t45 -59t70 -39t99.5 -12t99.5 12t70 39t45 59t26 83t11 98.5t2.5 117.5q0 206 -54 297.5t-200 91.5t-200 -91.5t-54 -297.5zM307 1335l422 197l47 -135l-426 -176z" />
<glyph unicode="&#xf4;" horiz-adv-x="995" d="M96 522q0 102 11.5 180t39 144t73 108.5t115 66t163.5 23.5q116 0 195 -34.5t124 -105t63.5 -162.5t18.5 -220q0 -75 -4 -132.5t-14.5 -116t-29 -101t-49 -80.5t-72 -61.5t-100 -37t-132.5 -13.5t-132.5 13.5t-100.5 37t-72 61.5t-49 80.5t-29.5 101t-14.5 116t-4 132.5z M195 1202l245 309h113l248 -309h-162l-141 174l-142 -174h-161zM244 522q0 -70 2.5 -117.5t11 -98.5t26 -83t45 -59t70 -39t99.5 -12t99.5 12t70 39t45 59t26 83t11 98.5t2.5 117.5q0 206 -54 297.5t-200 91.5t-200 -91.5t-54 -297.5z" />
<glyph unicode="&#xf5;" horiz-adv-x="995" d="M96 522q0 102 11.5 180t39 144t73 108.5t115 66t163.5 23.5q116 0 195 -34.5t124 -105t63.5 -162.5t18.5 -220q0 -75 -4 -132.5t-14.5 -116t-29 -101t-49 -80.5t-72 -61.5t-100 -37t-132.5 -13.5t-132.5 13.5t-100.5 37t-72 61.5t-49 80.5t-29.5 101t-14.5 116t-4 132.5z M186 1378q11 13 30 31.5t66.5 50t82.5 31.5q47 0 153.5 -49t128.5 -49q19 0 52.5 20t56.5 40l24 20l31 -109q-11 -12 -28.5 -30t-61.5 -47.5t-76 -29.5q-46 0 -152 49.5t-133 49.5q-22 0 -58 -21.5t-62 -42.5l-25 -22zM244 522q0 -70 2.5 -117.5t11 -98.5t26 -83t45 -59 t70 -39t99.5 -12t99.5 12t70 39t45 59t26 83t11 98.5t2.5 117.5q0 206 -54 297.5t-200 91.5t-200 -91.5t-54 -297.5z" />
<glyph unicode="&#xf6;" horiz-adv-x="995" d="M96 522q0 102 11.5 180t39 144t73 108.5t115 66t163.5 23.5q116 0 195 -34.5t124 -105t63.5 -162.5t18.5 -220q0 -75 -4 -132.5t-14.5 -116t-29 -101t-49 -80.5t-72 -61.5t-100 -37t-132.5 -13.5t-132.5 13.5t-100.5 37t-72 61.5t-49 80.5t-29.5 101t-14.5 116t-4 132.5z M244 522q0 -70 2.5 -117.5t11 -98.5t26 -83t45 -59t70 -39t99.5 -12t99.5 12t70 39t45 59t26 83t11 98.5t2.5 117.5q0 206 -54 297.5t-200 91.5t-200 -91.5t-54 -297.5zM244 1270v190h127v-190h-127zM618 1270v190h123v-190h-123z" />
<glyph unicode="&#xf7;" d="M246 575v150h116v98h422v-98h115v-150h-653zM496 61v207h153v-207h-153z" />
<glyph unicode="&#xf8;" horiz-adv-x="995" d="M96 524q0 128 18.5 220t63 162.5t124 105.5t196.5 35q71 0 141 -17l80 209l100 -39l-86 -213q90 -57 128 -172.5t38 -290.5q0 -75 -4 -132.5t-14.5 -116t-29 -101t-49 -80.5t-72 -61.5t-100 -37t-132.5 -13.5q-86 0 -150 18l-84 -227l-98 37l90 229q-94 59 -127 176.5 t-33 308.5zM244 524q0 -134 13 -215t54 -129l138 348l141 373q-41 12 -92 12q-146 0 -200 -91.5t-54 -297.5zM397 127q43 -12 101 -12q57 0 99.5 12t70 39t45 59t26 83t11 98.5t2.5 117.5q0 239 -74 324l-141 -354z" />
<glyph unicode="&#xf9;" horiz-adv-x="1028" d="M127 395v629h154v-594q0 -167 44 -242t148 -75q38 0 79.5 19.5t73.5 47.5t58.5 56t40.5 48l14 19v721h152v-1024h-150l-2 154q-5 -7 -14.5 -19t-40.5 -42t-63.5 -52.5t-81.5 -41.5t-97 -19q-165 0 -240 102.5t-75 312.5zM213 1403l47 127l422 -193l-41 -110z" />
<glyph unicode="&#xfa;" horiz-adv-x="1028" d="M127 395v629h154v-594q0 -167 44 -242t148 -75q38 0 79.5 19.5t73.5 47.5t58.5 56t40.5 48l14 19v721h152v-1024h-150l-2 154q-5 -7 -14.5 -19t-40.5 -42t-63.5 -52.5t-81.5 -41.5t-97 -19q-165 0 -240 102.5t-75 312.5zM326 1335l422 197l47 -135l-426 -176z" />
<glyph unicode="&#xfb;" horiz-adv-x="1028" d="M127 395v629h154v-594q0 -167 44 -242t148 -75q38 0 79.5 19.5t73.5 47.5t58.5 56t40.5 48l14 19v721h152v-1024h-150l-2 154q-5 -7 -14.5 -19t-40.5 -42t-63.5 -52.5t-81.5 -41.5t-97 -19q-165 0 -240 102.5t-75 312.5zM211 1202l246 309h110l250 -309h-162l-141 174 l-141 -174h-162z" />
<glyph unicode="&#xfc;" horiz-adv-x="1028" d="M127 395v629h154v-594q0 -167 44 -242t148 -75q38 0 79.5 19.5t73.5 47.5t58.5 56t40.5 48l14 19v721h152v-1024h-150l-2 154q-5 -7 -14.5 -19t-40.5 -42t-63.5 -52.5t-81.5 -41.5t-97 -19q-165 0 -240 102.5t-75 312.5zM250 1270v190h141v-190h-141zM639 1270v190h137 v-190h-137z" />
<glyph unicode="&#xfd;" horiz-adv-x="917" d="M49 1024h152l225 -893h63l230 893h151l-393 -1479h-147l129 455h-142zM291 1335l422 197l47 -135l-426 -176z" />
<glyph unicode="&#xfe;" horiz-adv-x="1009" d="M135 -451v1917h152v-571q4 3 30.5 26.5t49 40t56 38t69.5 33t71 11.5q352 0 352 -530q0 -278 -100.5 -406t-327.5 -128q-37 0 -87 3.5t-82 6.5l-31 4v-445h-152zM287 139q139 -20 200 -20q149 0 210 97.5t61 297.5q0 75 -10.5 140t-34 123.5t-68 92t-106.5 33.5 q-34 0 -73 -16.5t-69.5 -40.5t-56 -48t-39.5 -40l-14 -17v-602z" />
<glyph unicode="&#xff;" horiz-adv-x="917" d="M49 1024h152l225 -893h63l230 893h151l-393 -1479h-147l129 455h-142zM197 1270v190h141v-190h-141zM584 1270v190h139v-190h-139z" />
<glyph unicode="&#x152;" horiz-adv-x="1759" d="M106 707q0 376 117.5 557.5t388.5 181.5q101 0 273 -21h788v-153h-641v-477h527v-150h-527v-491h641v-156h-784q-203 -18 -277 -18q-190 0 -301 81.5t-159 247.5q-46 157 -46 398zM258 709q0 -190 31 -320q33 -131 113 -193.5t225 -62.5q37 0 258 17v1124 q-153 18 -260 18q-203 0 -285 -139t-82 -444z" />
<glyph unicode="&#x153;" horiz-adv-x="1638" d="M96 526q0 266 93.5 392t316.5 126q242 0 336 -192q95 192 321 192q279 0 355 -241q32 -106 32 -238v-121h-639q0 -99 25 -176q25 -72 79 -108.5t146 -36.5q62 0 149.5 4.5t143.5 8.5l57 5l5 -129q-201 -32 -365 -32q-110 0 -189 46t-124 126q-43 -87 -123.5 -129.5 t-208.5 -42.5q-151 0 -238.5 52.5t-128.5 160.5q-43 123 -43 333zM242 526q0 -221 47 -307q55 -98 217 -98q70 0 119 22t76 55.5t42 90t19 107t4 126.5q0 142 -31 232q-54 149 -229 149q-150 0 -207 -85.5t-57 -291.5zM911 573h494q0 149 -35 220q-49 106 -203 106 q-126 0 -191 -78.5t-65 -247.5z" />
<glyph unicode="&#x178;" horiz-adv-x="1019" d="M20 1417h170l320 -653l317 653h168l-409 -823v-594h-150v594zM256 1657v190h125v-190h-125zM641 1657v190h123v-190h-123z" />
<glyph unicode="&#x2c6;" horiz-adv-x="1619" d="M502 1202l246 309h83l250 -309h-149l-139 174l-144 -174h-147z" />
<glyph unicode="&#x2dc;" horiz-adv-x="874" d="M125 1378q4 5 11 12.5t28.5 27t42 34.5t47.5 27t49 12q47 0 154 -49t129 -49q19 0 52.5 20t57.5 40l23 20l31 -109q-11 -12 -28.5 -30t-61.5 -47.5t-76 -29.5q-46 0 -152 49.5t-133 49.5q-22 0 -58 -21.5t-61 -42.5l-26 -22z" />
<glyph unicode="&#x2000;" horiz-adv-x="1034" />
<glyph unicode="&#x2001;" horiz-adv-x="2068" />
<glyph unicode="&#x2002;" horiz-adv-x="1034" />
<glyph unicode="&#x2003;" horiz-adv-x="2068" />
<glyph unicode="&#x2004;" horiz-adv-x="689" />
<glyph unicode="&#x2005;" horiz-adv-x="517" />
<glyph unicode="&#x2006;" horiz-adv-x="344" />
<glyph unicode="&#x2007;" horiz-adv-x="344" />
<glyph unicode="&#x2008;" horiz-adv-x="258" />
<glyph unicode="&#x2009;" horiz-adv-x="413" />
<glyph unicode="&#x200a;" horiz-adv-x="114" />
<glyph unicode="&#x2010;" horiz-adv-x="770" d="M129 477v141h514v-141h-514z" />
<glyph unicode="&#x2011;" horiz-adv-x="770" d="M129 477v141h514v-141h-514z" />
<glyph unicode="&#x2012;" horiz-adv-x="770" d="M129 477v141h514v-141h-514z" />
<glyph unicode="&#x2013;" horiz-adv-x="1282" d="M129 481v135h1024v-135h-1024z" />
<glyph unicode="&#x2014;" horiz-adv-x="2306" d="M129 481v135h2048v-135h-2048z" />
<glyph unicode="&#x2018;" horiz-adv-x="409" d="M92 958l111 457h110l-73 -457h-148z" />
<glyph unicode="&#x2019;" horiz-adv-x="407" d="M102 961l74 456h148l-111 -456h-111z" />
<glyph unicode="&#x201a;" horiz-adv-x="397" d="M119 -92l22 90h23l-14 -90h-31z" />
<glyph unicode="&#x201c;" horiz-adv-x="735" d="M94 961l111 456h110l-73 -456h-148zM418 961l110 456h111l-74 -456h-147z" />
<glyph unicode="&#x201d;" horiz-adv-x="731" d="M102 961l74 456h148l-111 -456h-111zM426 961l74 456h147l-110 -456h-111z" />
<glyph unicode="&#x201e;" horiz-adv-x="675" d="M168 -326l111 457h139l-74 -457h-176z" />
<glyph unicode="&#x2022;" horiz-adv-x="942" d="M215 217v586h512v-586h-512z" />
<glyph unicode="&#x2026;" horiz-adv-x="1378" d="M129 0v227h156v-227h-156zM612 0v227h156v-227h-156zM1096 0v227h155v-227h-155z" />
<glyph unicode="&#x202f;" horiz-adv-x="413" />
<glyph unicode="&#x2039;" horiz-adv-x="569" d="M78 469v78l364 291v-140l-241 -188l241 -207v-141z" />
<glyph unicode="&#x203a;" horiz-adv-x="569" d="M127 440v29l242 37l-242 41v28l365 -61v-14z" />
<glyph unicode="&#x205f;" horiz-adv-x="517" />
<glyph unicode="&#x20ac;" d="M113 428v127h92q-2 39 -2 121q0 63 2 94h-92v125h100q14 118 43.5 204t82 149t133 94.5t190.5 31.5q72 0 158 -10t136 -20l50 -11l-9 -127q-184 35 -315 35q-149 0 -221.5 -86.5t-93.5 -259.5h542v-125h-551q-2 -31 -2 -94q0 -84 2 -121h551v-127h-538 q23 -156 95.5 -235.5t217.5 -79.5q52 0 130 8.5t130 16.5l53 9l7 -124q-186 -43 -342 -43q-110 0 -190 29.5t-132 88.5t-81.5 139t-43.5 191h-102z" />
<glyph unicode="&#x2122;" horiz-adv-x="1355" d="M172 1188v102h410v-102h-138v-508h-112v508h-160zM645 678v612h146l137 -426l143 426h146v-612h-107v459l-137 -428h-88l-133 428v-459h-107z" />
<glyph unicode="&#xe000;" horiz-adv-x="1024" d="M0 0v1024h1024v-1024h-1024z" />
</font>
</defs>
</svg>
