<?xml version="1.0" standalone="no"?>
<!DOCTYPE svg PUBLIC "-//W3C//DTD SVG 1.1//EN" "http://www.w3.org/Graphics/SVG/1.1/DTD/svg11.dtd" >
<svg xmlns="http://www.w3.org/2000/svg">
<metadata></metadata>
<defs>
<font id="TitilliumUpBoldItalic" horiz-adv-x="1146" >
<font-face units-per-em="2048" ascent="1536" descent="-512" />
<missing-glyph horiz-adv-x="450" />
<glyph horiz-adv-x="0" />
<glyph horiz-adv-x="2048" />
<glyph unicode=" "  horiz-adv-x="450" />
<glyph unicode="&#x09;" horiz-adv-x="450" />
<glyph unicode="&#xa0;" horiz-adv-x="450" />
<glyph unicode="!" horiz-adv-x="512" d="M143 0v276h226v-276h-226zM143 1434h226l-7 -930h-215z" />
<glyph unicode="&#x22;" horiz-adv-x="757" d="M111 1415h208l-8 -493h-192zM438 1415h209l-8 -493h-193z" />
<glyph unicode="#" d="M41 350v189h209v280h-209v187h209v352h194v-352h258v352h195v-352h209v-187h-209v-280h209v-189h-209v-350h-195v350h-258v-350h-194v350h-209zM444 539h258v280h-258v-280z" />
<glyph unicode="$" d="M150 975q0 207 107 303t329 96q29 0 45 -2l41 215h145l-43 -227q45 -6 90.5 -14.5t68.5 -13.5l23 -5l-10 -172q-103 13 -207 21l-73 -396q94 -31 150.5 -59.5t100.5 -72t62 -104t18 -149.5q0 -213 -105 -315.5t-327 -102.5q-25 0 -49 3l-41 -224h-147l43 236 q-48 4 -97.5 11t-74.5 12l-25 5l12 177q111 -13 220 -21l81 432q-179 56 -258 138t-79 229zM371 1004q0 -73 33.5 -110.5t123.5 -68.5l66 357q-119 -2 -171 -42t-52 -136zM553 170h12q108 0 159.5 50t51.5 157q0 79 -33.5 119.5t-115.5 70.5z" />
<glyph unicode="%" d="M47 1145q0 -147 62 -221t176 -74t175.5 74t61.5 221t-61 219t-176 72t-176.5 -72.5t-61.5 -218.5zM215 1145q0 81 15.5 117t54.5 36t54 -35.5t15 -117.5t-15 -119t-54 -37t-54.5 37.5t-15.5 118.5zM270 12l451 1452l147 -47l-450 -1452zM625 295q0 147 61 219t176 72 q236 0 236 -291q0 -146 -61.5 -220.5t-174.5 -74.5q-114 0 -175.5 74t-61.5 221zM793 295q0 -82 15 -119t54 -37t54.5 37t15.5 119t-15.5 118t-54.5 36t-54 -36t-15 -118z" />
<glyph unicode="&#x26;" horiz-adv-x="1306" d="M51 412q0 276 293 397q-61 80 -86 141.5t-25 141.5q0 174 92 253.5t275 79.5q185 0 277 -78.5t92 -254.5q0 -114 -61 -201t-216 -168l226 -234q35 74 55 240h201q-3 -87 -35 -201.5t-72 -187.5q13 -12 106 -105.5t109 -107.5q-137 -147 -145 -147l-195 192 q-94 -102 -191.5 -148.5t-242.5 -46.5q-223 0 -340 113t-117 322zM281 397q0 -100 62 -164.5t173 -64.5q89 0 156.5 32t124.5 101l-340 373q-96 -49 -136 -116t-40 -161zM463 1079q0 -72 23.5 -117.5t93.5 -115.5q86 44 122.5 95.5t36.5 135.5q0 75 -33.5 118.5t-105.5 43.5 q-70 0 -103.5 -44.5t-33.5 -115.5z" />
<glyph unicode="'" horiz-adv-x="430" d="M111 1415h208l-8 -493h-192z" />
<glyph unicode="(" horiz-adv-x="550" d="M82 616q0 123 21.5 263t52 251t61.5 205t53 145l21 52h207q-8 -22 -20.5 -60t-44.5 -151t-57 -219.5t-45 -242.5t-20 -243t19.5 -235.5t46.5 -236.5t54.5 -200.5t46.5 -145.5l20 -52h-207q-8 18 -22.5 49.5t-50.5 129.5t-63.5 196t-50 235t-22.5 260z" />
<glyph unicode=")" horiz-adv-x="550" d="M53 -242q8 22 20.5 60t44.5 151t57 219.5t45 242.5t20 243t-19.5 235.5t-47 236.5t-54.5 200.5t-47 145.5l-19 52h207q8 -18 22.5 -49.5t50.5 -129.5t63.5 -196t50 -235t22.5 -260t-21.5 -263t-52.5 -251t-61.5 -205t-51.5 -145l-22 -52h-207z" />
<glyph unicode="*" horiz-adv-x="831" d="M78 938l217 162l-213 151l82 111l211 -154l82 252l131 -43l-80 -254h258v-131h-260l80 -250l-127 -39l-84 252l-215 -161z" />
<glyph unicode="+" d="M106 414v200h365v367h201v-367h368v-200h-368v-371h-201v371h-365z" />
<glyph unicode="," horiz-adv-x="464" d="M55 -266l80 540h236l-138 -540h-178z" />
<glyph unicode="-" horiz-adv-x="755" d="M113 444v201h528v-201h-528z" />
<glyph unicode="." horiz-adv-x="452" d="M113 0v276h225v-276h-225z" />
<glyph unicode="/" horiz-adv-x="851" d="M53 37l543 1423l203 -71l-543 -1426z" />
<glyph unicode="0" d="M82 662q0 162 22 284t62.5 203t102.5 131.5t135.5 72t168.5 21.5q120 0 207.5 -35t153 -115t98.5 -219.5t33 -340.5q0 -359 -119 -523t-373 -164q-253 0 -372 163.5t-119 521.5zM315 662q0 -97 7.5 -170.5t25 -135t47 -100.5t74.5 -60.5t106 -21.5q145 0 200.5 117 t55.5 371q0 283 -60.5 400.5t-197.5 117.5q-90 0 -145.5 -49t-84 -163.5t-28.5 -305.5z" />
<glyph unicode="1" d="M188 1061l430 291h209v-1352h-227v1087l-305 -204z" />
<glyph unicode="2" d="M139 0v186l340 355q80 83 121.5 131t80 102.5t53 99t14.5 95.5q0 112 -56 161.5t-176 49.5q-63 0 -152 -9t-146 -19l-58 -9l-13 172q25 7 67 16.5t149.5 26t189.5 16.5q426 0 426 -375q0 -82 -19 -151t-61 -133t-88 -114.5t-121 -121.5l-295 -282h613v-197h-869z" />
<glyph unicode="3" d="M123 37l22 166q185 -29 390 -29q117 0 178 55t61 164q0 99 -61 148t-164 51h-264v178l264 12q74 3 135 62.5t61 134.5q0 108 -51.5 154.5t-175.5 46.5q-75 0 -165.5 -8t-143.5 -16l-53 -7l-13 166q219 59 389 59q236 0 341.5 -87.5t105.5 -274.5q0 -108 -42.5 -176.5 t-131.5 -120.5q51 -23 84.5 -45.5t62.5 -58.5t42.5 -88t13.5 -124q0 -422 -443 -422q-89 0 -199.5 15t-176.5 30z" />
<glyph unicode="4" d="M92 242v166l369 944h246l-390 -920h373v399h225v-399h142v-190h-142v-248h-225v248h-598z" />
<glyph unicode="5" d="M121 49l24 168q205 -43 408 -43q112 0 178 68t66 188q0 121 -57.5 173t-166.5 52q-68 0 -137 -14.5t-104 -29.5l-35 -15l-147 35l43 723h790v-197h-610l-37 -371q16 7 43.5 18t100 29.5t128.5 18.5q202 0 312 -95.5t110 -314.5q0 -231 -123 -348t-342 -117q-84 0 -195 18 t-180 36z" />
<glyph unicode="6" d="M94 627q0 165 26 293.5t72.5 213t115 139t148 78t177.5 23.5q68 0 163 -10t156 -20l62 -11l-19 -186q-200 33 -362 33q-143 0 -216.5 -99.5t-88.5 -300.5q18 8 48 20t106 32t132 20q217 0 334 -103.5t117 -318.5q0 -224 -122.5 -338.5t-348.5 -114.5q-250 0 -375 165 t-125 485zM328 569q0 -178 68.5 -286.5t197.5 -108.5q113 0 175 66t62 190q0 113 -61 169t-174 56q-56 0 -122 -13.5t-104 -27.5l-38 -14q-4 -16 -4 -31z" />
<glyph unicode="7" d="M160 1155v197h831v-279l-491 -1106l-211 64l475 1050v74h-604z" />
<glyph unicode="8" d="M70 358q0 66 15.5 120t44.5 94.5t61.5 70t76.5 57.5q-97 64 -136.5 132.5t-39.5 183.5q0 171 131.5 265.5t347.5 94.5q215 0 349.5 -94.5t134.5 -267.5q0 -122 -39 -185.5t-144 -128.5q100 -50 151.5 -125t51.5 -194q0 -105 -39 -185t-108.5 -128t-159.5 -71.5 t-199 -23.5t-196.5 21t-157 65t-107.5 120t-38 179zM301 393q0 -110 73 -166.5t195 -56.5q126 0 200.5 57t74.5 170q0 137 -178 195h-193q-172 -55 -172 -199zM324 981q0 -128 149 -199h193q157 74 157 199q0 94 -68 146.5t-184 52.5q-113 0 -180 -52t-67 -147z" />
<glyph unicode="9" d="M78 928q0 211 132 328.5t341 117.5q244 0 371 -176t127 -520q0 -156 -25.5 -276t-71.5 -200t-114.5 -131t-149 -72.5t-180.5 -21.5q-68 0 -163.5 11.5t-157.5 23.5l-62 11l22 196q201 -33 361 -33q150 0 227.5 96.5t77.5 278.5q-174 -63 -289 -63q-207 0 -326.5 109 t-119.5 321zM313 928q0 -113 60.5 -169.5t169.5 -56.5q54 0 122 11.5t109 22.5l41 12q0 194 -66 306.5t-196 112.5q-108 0 -174 -63.5t-66 -175.5z" />
<glyph unicode=":" horiz-adv-x="452" d="M113 0v276h225v-276h-225zM113 635v276h225v-276h-225z" />
<glyph unicode=";" horiz-adv-x="505" d="M72 -266h178l137 540h-235zM147 635v276h226v-276h-226z" />
<glyph unicode="&#x3c;" d="M131 422v184l842 393v-227l-604 -254l604 -266v-229z" />
<glyph unicode="=" d="M125 211v201h897v-201h-897zM125 616v201h897v-201h-897z" />
<glyph unicode="&#x3e;" d="M174 23v229l604 266l-604 254v227l842 -393v-184z" />
<glyph unicode="?" horiz-adv-x="854" d="M55 1366q211 59 336 59q209 0 305.5 -82.5t96.5 -277.5q0 -70 -24 -130.5t-66.5 -115t-129.5 -145.5q-53 -58 -75.5 -96.5t-22.5 -81.5v-80h-215q-14 64 -14 123q0 77 36 133.5t138 161.5q82 86 109.5 130t27.5 101q0 93 -44.5 127.5t-145.5 34.5q-46 0 -118.5 -8.5 t-121.5 -17.5l-49 -9zM246 0v297h229v-297h-229z" />
<glyph unicode="@" horiz-adv-x="1878" d="M74 535q0 489 211.5 705t683.5 216q235 0 396.5 -52.5t261.5 -166t144 -280.5t44 -408q0 -116 -18 -210t-59 -174t-116.5 -124.5t-181.5 -44.5q-118 0 -178.5 39t-94.5 155q-44 -79 -129 -136.5t-176 -57.5q-185 0 -265.5 123t-80.5 377q0 100 11 177t39 146t74 113.5 t119 70t171 25.5q61 0 165.5 -9t178.5 -19l74 -9v-692q0 -64 21 -90.5t71 -26.5q83 0 127.5 82.5t44.5 284.5q0 134 -11.5 233.5t-40 183t-75.5 138.5t-119 93.5t-169.5 55.5t-227.5 17q-373 0 -531.5 -170t-158.5 -565q0 -193 36 -333t115.5 -240t211.5 -149t319 -49 q35 0 104 5t121 9l51 5l6 -186q-190 -19 -282 -19q-465 0 -676 237t-211 720zM743 518q0 -175 34 -254.5t130 -79.5q36 0 71 18t60.5 43.5t45.5 51t30 43.5l10 18v465q-6 2 -78.5 9.5t-99.5 7.5q-61 0 -101.5 -22t-62.5 -66t-30.5 -99.5t-8.5 -134.5z" />
<glyph unicode="A" horiz-adv-x="1130" d="M35 0l323 1403h414l322 -1403h-228l-71 293h-457l-76 -293h-227zM377 494h375l-166 710h-43z" />
<glyph unicode="B" horiz-adv-x="1159" d="M141 0v1403h475q200 0 313 -88t113 -271q0 -126 -40 -196t-125 -119q106 -46 152 -122.5t46 -205.5q0 -209 -113.5 -305t-334.5 -96h-486zM371 197h254q110 0 162.5 54t52.5 167q0 105 -54 154t-165 49h-250v-424zM371 811h247q95 0 143 55.5t48 151.5t-48 142t-145 46 h-245v-395z" />
<glyph unicode="C" horiz-adv-x="1019" d="M92 705q0 374 113 547t379 173q69 0 161 -11.5t149 -23.5l58 -12l-10 -180q-203 29 -324 29q-162 0 -226 -123.5t-64 -398.5q0 -105 7.5 -182.5t27 -145.5t52.5 -110.5t85.5 -66.5t124.5 -24q48 0 127.5 7t134.5 15l55 7l8 -185q-196 -43 -366 -43q-117 0 -203 32.5 t-141 91t-88.5 151.5t-46.5 201t-13 252z" />
<glyph unicode="D" horiz-adv-x="1218" d="M141 0v1403h459q156 0 258 -39t161 -125t82 -205.5t23 -298.5q0 -152 -14 -262.5t-48.5 -203.5t-93.5 -150t-150.5 -88t-217.5 -31h-459zM371 201h229q54 0 96.5 13t73 35.5t52 60t34.5 78.5t20.5 99.5t10 115t2.5 132.5q0 103 -5.5 170t-22.5 129t-48.5 96t-84 54 t-128.5 20h-229v-1003z" />
<glyph unicode="E" horiz-adv-x="1032" d="M141 0v1403h813v-199h-583v-397h469v-201h-469v-407h583v-199h-813z" />
<glyph unicode="F" horiz-adv-x="995" d="M141 0v1403h815v-199h-585v-481h471v-199h-471v-524h-230z" />
<glyph unicode="G" horiz-adv-x="1173" d="M90 711q0 178 27 306t89 222t166.5 140t254.5 46q102 0 210.5 -13.5t166.5 -26.5l57 -13l-8 -178q-242 33 -404 33q-82 0 -141 -26t-93.5 -69t-55 -112t-27 -140t-6.5 -169t7.5 -173t28.5 -145.5t55.5 -116t91.5 -73t134 -27.5q32 0 79.5 4t79.5 8l32 5v376h-162v189h389 v-740q-295 -41 -449 -41q-119 0 -210 36.5t-149.5 100t-95.5 157.5t-52 201t-15 239z" />
<glyph unicode="H" horiz-adv-x="1261" d="M141 0v1403h230v-590h520v590h227v-1403h-227v614h-520v-614h-230z" />
<glyph unicode="I" horiz-adv-x="512" d="M141 0v1403h230v-1403h-230z" />
<glyph unicode="J" horiz-adv-x="565" d="M33 57q59 1 93 10.5t50.5 36.5t20.5 58t4 92v1149h227l2 -1155q0 -80 -4.5 -131t-19 -99t-40.5 -75t-71 -48.5t-108.5 -29.5t-153.5 -8v200z" />
<glyph unicode="K" horiz-adv-x="1103" d="M141 0v1403h230v-623l168 13l270 610h254l-326 -686l344 -717h-254l-282 594l-174 -12v-582h-230z" />
<glyph unicode="L" horiz-adv-x="880" d="M141 0v1403h230v-1204h491v-199h-721z" />
<glyph unicode="M" horiz-adv-x="1601" d="M141 0v1403h387l275 -1127l272 1127h385v-1403h-213v1204h-35l-270 -1147h-280l-273 1147h-33v-1204h-215z" />
<glyph unicode="N" horiz-adv-x="1310" d="M141 0v1403h371l412 -1163h26v1163h219v-1403h-358l-412 1176h-28v-1176h-230z" />
<glyph unicode="O" horiz-adv-x="1230" d="M92 715q0 266 49 420t166 223q111 67 307 67q152 0 252 -38.5t161.5 -127t86.5 -218.5t25 -326q0 -276 -53.5 -439.5t-180.5 -234.5q-110 -64 -291 -64q-150 0 -250.5 43t-161 136.5t-85.5 227.5t-25 331zM328 715q0 -125 6.5 -206.5t24 -150t49.5 -106t82 -57t124 -19.5 q85 0 148 29q82 44 111.5 160.5t29.5 349.5q0 124 -6.5 203.5t-24 143.5t-50.5 97.5t-83 50.5t-125 17q-80 0 -141 -23q-88 -36 -116.5 -144t-28.5 -345z" />
<glyph unicode="P" horiz-adv-x="1120" d="M141 0v1403h459q232 0 347.5 -112.5t115.5 -364.5q0 -268 -118 -387t-345 -119h-229v-420h-230zM371 621h215q124 0 182.5 69.5t58.5 241.5q0 155 -58 213.5t-185 58.5h-213v-583z" />
<glyph unicode="Q" horiz-adv-x="1230" d="M92 715q0 266 49 420t166 223q111 67 307 67q152 0 252 -38.5t161.5 -127t86.5 -218.5t25 -326q0 -258 -46 -416.5t-153 -235.5l160 -253l-197 -115l-160 293q-71 -11 -129 -11q-150 0 -250.5 43t-161 136.5t-85.5 227.5t-25 331zM328 715q0 -125 6.5 -206.5t24 -150 t49.5 -106t82 -57t124 -19.5q85 0 148 29q82 44 111.5 160.5t29.5 349.5q0 124 -6.5 203.5t-24 143.5t-50.5 97.5t-83 50.5t-125 17q-80 0 -141 -23q-88 -36 -116.5 -144t-28.5 -345z" />
<glyph unicode="R" horiz-adv-x="1155" d="M141 0v1403h471q224 0 336.5 -105.5t112.5 -341.5q0 -118 -28 -203t-71 -130.5t-106 -75.5l236 -547h-242l-207 498h-272v-498h-230zM371 694h241q110 0 161.5 64t51.5 198q0 130 -51.5 190t-161.5 60h-241v-512z" />
<glyph unicode="S" horiz-adv-x="1028" d="M74 1012q0 215 111.5 314t342.5 99q77 0 173.5 -11.5t154.5 -23.5l57 -12l-10 -180q-231 29 -360 29q-126 0 -182 -42.5t-56 -142.5q0 -33 5 -57t21 -44.5t33 -34.5t53.5 -29t69.5 -26.5t93 -29.5q72 -23 120 -42t94 -44t73.5 -53.5t49 -68t30.5 -89t9 -114.5 q0 -221 -109.5 -327t-340.5 -106q-77 0 -178.5 10.5t-164.5 21.5l-63 11l13 185q264 -29 393 -29q113 0 166 51.5t53 163.5q0 53 -13 88t-48 61t-77 42.5t-120 38.5q-104 30 -174.5 62.5t-121 78.5t-74 107t-23.5 143z" />
<glyph unicode="T" horiz-adv-x="948" d="M23 1204v199h903v-199h-334v-1204h-227v1204h-342z" />
<glyph unicode="U" horiz-adv-x="1222" d="M133 455v948h229v-967q0 -139 58 -199.5t192 -60.5q135 0 192.5 60t57.5 200v967h228v-948q0 -249 -114.5 -363.5t-363.5 -114.5q-250 0 -364.5 114.5t-114.5 363.5z" />
<glyph unicode="V" horiz-adv-x="1124" d="M33 1403h229l262 -1204h78l262 1204h228l-322 -1403h-416z" />
<glyph unicode="W" horiz-adv-x="1738" d="M45 1403h225l211 -1192h41l223 1171h246l226 -1171h40l209 1192h226l-269 -1403h-356l-201 1094l-194 -1094h-355z" />
<glyph unicode="X" horiz-adv-x="1067" d="M18 0l383 702l-376 701h243l264 -535l265 535h241l-366 -701l375 -702h-244l-271 539l-270 -539h-244z" />
<glyph unicode="Y" horiz-adv-x="1026" d="M8 1403h242l262 -584l260 584h242l-393 -828v-575h-213v575z" />
<glyph unicode="Z" horiz-adv-x="1005" d="M78 0v236l584 917v51h-584v199h850v-238l-586 -917v-49h586v-199h-850z" />
<glyph unicode="[" horiz-adv-x="655" d="M135 -250v1780h453v-191h-238v-1398h238v-191h-453z" />
<glyph unicode="\" horiz-adv-x="985" d="M57 1430l230 8l637 -1452l-230 -6z" />
<glyph unicode="]" horiz-adv-x="655" d="M68 -59h237v1398h-237v191h452v-1780h-452v191z" />
<glyph unicode="^" d="M68 647l389 705h192l395 -705h-233l-254 488l-256 -488h-233z" />
<glyph unicode="_" horiz-adv-x="1261" d="M172 -164h918v-209h-918v209z" />
<glyph unicode="`" horiz-adv-x="1060" d="M209 1374l63 185l465 -187l-55 -164z" />
<glyph unicode="a" horiz-adv-x="1032" d="M80 496q0 100 11 179t39 150.5t74 119t119 75t171 27.5q61 0 164.5 -9.5t177.5 -18.5l73 -9v-736l11 -272l-222 -8q-10 81 -10 149q-4 -7 -11.5 -18t-33 -39.5t-54 -50.5t-74.5 -40t-95 -18q-183 0 -261.5 127.5t-78.5 391.5zM305 496q0 -79 7 -135.5t24.5 -102.5 t50.5 -69t82 -23q36 0 72 18t61.5 43.5t45.5 51t30 43.5l10 18v502q-125 16 -174 16q-118 0 -163.5 -86.5t-45.5 -275.5z" />
<glyph unicode="b" horiz-adv-x="1030" d="M123 4v1446h221v-518q5 5 14.5 12.5t39 27.5t59 35t72 27.5t81.5 12.5q185 0 263.5 -129t78.5 -388q0 -293 -109.5 -421.5t-348.5 -128.5q-47 0 -140 6t-162 12zM344 180q121 -12 158 -12q130 0 177.5 83t47.5 279q0 72 -7 126t-24 102.5t-51.5 74t-85.5 25.5 q-32 0 -65.5 -11t-59 -27t-47 -32t-32.5 -27l-11 -11v-570z" />
<glyph unicode="c" horiz-adv-x="821" d="M78 520q0 269 98 396.5t303 127.5q58 0 126.5 -9t107.5 -18l39 -9l-7 -170q-136 14 -210 14q-130 0 -181 -79t-51 -253q0 -90 9 -149t33 -107.5t71 -71t119 -22.5q33 0 85.5 3.5t88.5 6.5l36 4l7 -168q-146 -39 -279 -39q-113 0 -191 35.5t-122 108t-63 168.5t-19 231z " />
<glyph unicode="d" horiz-adv-x="1032" d="M80 500q0 273 92.5 408.5t304.5 135.5q41 0 93.5 -6.5t85.5 -13.5l32 -6v432h221v-1450h-217l-4 115q-4 -6 -11.5 -15t-33.5 -33t-55.5 -42t-77 -33t-98.5 -15q-175 0 -253.5 132.5t-78.5 390.5zM305 500q0 -81 7 -138t25.5 -103.5t52.5 -69.5t85 -23q34 0 68.5 16t59 38 t45 44.5t30.5 38.5l10 16v517q-102 20 -186 20q-109 0 -153 -88t-44 -268z" />
<glyph unicode="e" horiz-adv-x="940" d="M76 483q0 124 23.5 224t73 176.5t132.5 118.5t195 42q186 0 281.5 -72.5t95.5 -230.5q0 -95 -30.5 -156.5t-96.5 -95t-152 -46.5t-215 -13h-84v-33q0 -105 53.5 -166t155.5 -61q63 0 143 8t129 16l49 7l7 -160q-17 -7 -47.5 -17t-120.5 -27t-176 -17q-216 0 -316 121.5 t-100 381.5zM301 596h82q152 0 213 28t61 115q0 70 -38 98.5t-119 28.5q-196 0 -199 -270z" />
<glyph unicode="f" horiz-adv-x="653" d="M59 834v190h103v61q0 204 65.5 296t206.5 92q29 0 79 -5.5t85 -11.5l35 -6l-2 -180q-85 12 -146 12t-81.5 -48.5t-20.5 -150.5v-59h238v-190h-238v-834l-16 -440h-205v1274h-103z" />
<glyph unicode="g" horiz-adv-x="974" d="M66 -201q0 147 176 271q-58 51 -58 137q0 32 19.5 73.5t38.5 67.5l20 25q-182 83 -182 313q0 177 97 269t276 92q33 0 78.5 -7.5t74.5 -14.5l29 -7l297 6v-182h-146q22 -23 35 -66.5t13 -89.5q0 -173 -98.5 -263.5t-284.5 -90.5l-43 2q-21 -59 -21 -92q0 -16 3.5 -25.5 t17 -21t45.5 -17.5t82 -6q80 0 136 -6t109.5 -24t86 -50t52 -86.5t19.5 -130.5q0 -158 -128.5 -254t-322.5 -96q-209 0 -315 60.5t-106 213.5zM270 -158q0 -69 55 -99t175 -30q103 0 166 43t63 119q0 35 -13.5 57.5t-42 33.5t-62 14.5t-85.5 3.5q-96 0 -166 12 q-35 -25 -62.5 -67.5t-27.5 -86.5zM287 686q0 -170 164 -170q178 0 178 170q0 176 -176 176q-166 0 -166 -176z" />
<glyph unicode="h" horiz-adv-x="1048" d="M123 0v1450h221v-543q4 6 12 15.5t35 33.5t55.5 42.5t73.5 33.5t90 15q87 0 151.5 -31t102 -88t55 -129t17.5 -162v-637h-221v578q0 151 -34.5 215.5t-121.5 64.5q-32 0 -65.5 -15t-59 -36t-47 -42.5t-32.5 -36.5l-11 -15v-713h-221z" />
<glyph unicode="i" horiz-adv-x="466" d="M121 1178v237h225v-237h-225zM123 0v1024h221v-1024h-221z" />
<glyph unicode="j" horiz-adv-x="466" d="M-90 -307q56 35 87.5 55.5t58.5 45t38 40t19 44t9 52.5t1 70v1024h221v-1024q0 -73 -3 -116.5t-17 -88t-34.5 -72t-63.5 -62.5t-96 -64t-140 -72zM123 1180v237h221v-237h-221z" />
<glyph unicode="k" horiz-adv-x="958" d="M123 0v1450h221v-838l98 13l238 399h246l-295 -477l301 -547h-246l-237 434l-105 -12v-422h-221z" />
<glyph unicode="l" horiz-adv-x="473" d="M125 0v1450h223v-1450h-223z" />
<glyph unicode="m" horiz-adv-x="1609" d="M123 0v1024h217l2 -123q4 6 12.5 16t36 35t57 44t74 35t88.5 16q57 0 106 -16.5t77 -40t48.5 -47t28.5 -39.5l7 -17q5 7 15 17.5t42 38t64.5 48.5t79.5 38.5t91 17.5q112 0 186.5 -56.5t107 -152.5t32.5 -230v-608h-221v578q0 152 -35 216t-123 64q-48 0 -96.5 -34 t-73.5 -68l-24 -33q8 -74 8 -137v-586h-223v557q0 167 -33 234t-119 67q-30 0 -62.5 -15.5t-58 -38t-46.5 -44.5t-32 -38l-12 -15v-707h-221z" />
<glyph unicode="n" horiz-adv-x="1048" d="M123 0v1024h217l2 -123q4 6 12.5 16t35.5 35t56 44t74 35t90 16q87 0 151 -31t101.5 -88t55.5 -130t18 -163v-635h-221v578q0 152 -35 216t-123 64q-31 0 -64.5 -15.5t-59 -38t-46.5 -44.5t-32 -38l-11 -15v-707h-221z" />
<glyph unicode="o" horiz-adv-x="995" d="M78 516q0 97 12 174t41 145t76 113t120.5 70.5t170.5 25.5q120 0 203.5 -38t130 -111t66.5 -165t20 -214q0 -98 -10 -174.5t-38 -147t-74.5 -116.5t-121.5 -73.5t-176 -27.5t-176 27.5t-121.5 73.5t-74.5 116.5t-38 147t-10 174.5zM291 516q0 -68 4 -116t16.5 -95 t35 -75.5t60.5 -46t91 -17.5t90.5 17.5t60 46t35.5 75.5t17 95.5t4 115.5q0 83 -9 142t-31.5 105.5t-63.5 69.5t-103 23t-103 -23t-63.5 -69.5t-31.5 -105.5t-9 -142z" />
<glyph unicode="p" horiz-adv-x="1030" d="M123 -440v1464h217l2 -115q4 6 12 15t34 33t54 42t71 33t87 15q189 0 270.5 -131.5t81.5 -391.5q0 -272 -94 -408t-307 -136q-42 0 -93.5 6.5t-82.5 13.5l-31 6v-446h-221zM344 186q102 -18 180 -18q114 0 158.5 86t44.5 270q0 166 -36 250t-132 84q-33 0 -67 -16 t-59.5 -38t-46 -44.5t-31.5 -38.5l-11 -16v-519z" />
<glyph unicode="q" horiz-adv-x="1030" d="M80 506q0 272 98 405t324 133q55 0 156.5 -9t175.5 -18l75 -9v-1428h-223v533q-4 -6 -10.5 -15t-31 -32.5t-52 -41.5t-72.5 -32.5t-94 -14.5q-184 0 -265 136t-81 393zM305 506q0 -175 36.5 -257.5t135.5 -82.5q32 0 65 16t57.5 38t45 44.5t31.5 38.5l10 16v521 q-107 16 -168 16q-118 0 -165.5 -81.5t-47.5 -268.5z" />
<glyph unicode="r" horiz-adv-x="661" d="M123 0v1024h219v-150q5 5 15 14.5t40.5 34.5t62.5 46.5t79 44t92 33.5v-232q-60 -15 -132 -46.5t-113 -56.5l-42 -24v-688h-221z" />
<glyph unicode="s" horiz-adv-x="880" d="M76 29l12 170q226 -33 322 -33q99 0 140.5 26.5t41.5 92.5q0 59 -36.5 82t-141.5 45q-88 19 -144.5 40t-103 56t-67.5 88t-21 129q0 83 29.5 146.5t80 100t110.5 54.5t128 18q84 0 172.5 -12t135.5 -24l46 -11l-8 -170q-197 29 -332 29q-59 0 -100 -28.5t-41 -84.5 q0 -58 36 -83.5t142 -51.5q56 -13 87 -21.5t72.5 -23t64 -28.5t48 -36t37.5 -48.5t20.5 -63t8.5 -82.5q0 -181 -97.5 -254.5t-287.5 -73.5q-73 0 -161.5 13t-140.5 26z" />
<glyph unicode="t" horiz-adv-x="671" d="M45 834v190h117v281h221v-281h250v-190h-250v-519q0 -74 20 -111.5t74 -37.5q29 0 67.5 3t62.5 6l24 3l10 -170q-125 -31 -195 -31q-84 0 -140.5 21t-87.5 64.5t-43.5 100.5t-12.5 140v531h-117z" />
<glyph unicode="u" horiz-adv-x="1050" d="M115 389v635h221v-578q0 -151 35.5 -215.5t122.5 -64.5q31 0 64.5 15.5t59 37.5t46.5 44.5t32 38.5l11 15v707h221v-1024h-217l-2 123q-4 -6 -12.5 -16t-35.5 -35t-56.5 -44t-74.5 -35t-90 -16q-169 0 -247 103.5t-78 308.5z" />
<glyph unicode="v" horiz-adv-x="925" d="M33 1024h219l186 -840h49l187 840h219l-252 -1024h-356z" />
<glyph unicode="w" horiz-adv-x="1521" d="M51 1024h219l150 -834h45l178 814h236l178 -814h45l149 834h219l-192 -1024h-373l-145 700l-146 -700h-372z" />
<glyph unicode="x" horiz-adv-x="872" d="M27 0l286 510l-282 514h229l182 -356l176 356h226l-281 -514l281 -510h-228l-178 350l-186 -350h-225z" />
<glyph unicode="y" horiz-adv-x="925" d="M37 1024h217l188 -840h45l193 840h213l-358 -1464h-209l118 440h-161z" />
<glyph unicode="z" horiz-adv-x="858" d="M74 0v186l471 648h-471v190h710v-182l-465 -652h465v-190h-710z" />
<glyph unicode="{" horiz-adv-x="681" d="M39 549v178q184 46 184 207q0 33 -7 123.5t-7 130.5q0 191 94.5 273t304.5 87l2 -192q-106 -6 -141 -38t-35 -116q0 -6 7.5 -141.5t7.5 -142.5q0 -120 -42 -180.5t-141 -98.5q183 -65 183 -281q0 -35 -7.5 -139t-7.5 -145q0 -77 46 -110t130 -38l-2 -192q-87 2 -154 19 t-125 54.5t-89 106t-31 166.5q0 36 7 130.5t7 133.5q0 46 -15 81.5t-44 58.5t-57 37t-68 28z" />
<glyph unicode="|" horiz-adv-x="487" d="M133 -440v1890h221v-1890h-221z" />
<glyph unicode="}" horiz-adv-x="679" d="M70 -78q106 6 141 38t35 116q0 6 -7.5 141.5t-7.5 142.5q0 120 42 180.5t141 98.5q-183 65 -183 281q0 35 7.5 139t7.5 145q0 77 -46 110t-130 38l2 192q87 -2 154 -19t125 -54.5t89 -106t31 -166.5q0 -36 -7 -130.5t-7 -133.5q0 -46 15 -81.5t44 -58.5t57 -37t68 -28 v-178q-184 -46 -184 -207q0 -33 7 -123.5t7 -130.5q0 -191 -94.5 -273t-304.5 -87z" />
<glyph unicode="~" d="M129 569q5 4 14.5 11.5t38 26t56.5 32.5t66 25.5t71 11.5q59 0 213 -52.5t200 -52.5q35 0 87 21t87 42l35 21l19 -178q-5 -4 -13.5 -11.5t-34.5 -25.5t-52 -32t-62.5 -25.5t-69.5 -11.5q-61 0 -219 52t-194 52q-41 0 -95.5 -21.5t-89.5 -43.5l-34 -21z" />
<glyph unicode="&#xa1;" horiz-adv-x="479" d="M127 -410l6 930h215l4 -930h-225zM127 748v276h225v-276h-225z" />
<glyph unicode="&#xa2;" d="M205 510q0 212 95 321t261 125v222h178v-230l168 -20l-8 -189q-161 11 -235 11q-131 0 -183.5 -54.5t-52.5 -185.5q0 -127 51 -182.5t191 -55.5q33 0 90.5 3t99.5 7l41 3l6 -187q-90 -16 -168 -24v-232h-178v226q-73 2 -133.5 27.5t-101 67t-68.5 97.5t-40.5 118.5 t-12.5 131.5z" />
<glyph unicode="&#xa3;" d="M156 0v190h186v508h-158v191h158v86q0 101 13.5 173t47.5 129.5t96.5 85.5t155.5 28q41 0 112.5 -10.5t122.5 -21.5l52 -11l-8 -172q-156 18 -246 18q-25 0 -43.5 -6.5t-31.5 -17t-22 -29t-13.5 -35.5t-7 -45.5t-3 -50t-0.5 -56.5v-65h344v-191h-344v-508h250l141 31 l31 -184l-155 -37h-678z" />
<glyph unicode="&#xa4;" d="M86 182l147 146q-49 88 -49 188t49 186l-147 148l154 154l145 -148q88 47 188.5 47t186.5 -47l147 148l154 -154l-148 -148q47 -86 47 -186t-47 -188l148 -146l-154 -153l-147 147q-86 -50 -186.5 -50t-188.5 50l-145 -147zM388 516q0 -77 54 -131t131.5 -54t131.5 54 t54 131t-54 131t-131.5 54t-131.5 -54t-54 -131z" />
<glyph unicode="&#xa5;" d="M18 1352h256l299 -535l297 535h256l-311 -561h184v-197h-297l-12 -21v-90h309v-196h-309v-287h-227v287h-318v196h318v90l-12 21h-306v197h187z" />
<glyph unicode="&#xa6;" horiz-adv-x="495" d="M137 336h221v-776h-221v776zM137 686v764h221v-764h-221z" />
<glyph unicode="&#xa7;" horiz-adv-x="968" d="M76 473q0 119 114 264q-46 43 -63.5 92t-17.5 132q0 174 101.5 265t299.5 91q58 0 140.5 -10.5t135.5 -21.5l54 -11l-11 -189q-215 31 -307 31q-113 0 -161 -32t-48 -107q0 -72 50 -102t219 -68q161 -38 231 -101t70 -204q0 -67 -27.5 -146t-60.5 -131q34 -32 51.5 -91 t17.5 -122q0 -188 -96.5 -275t-300.5 -87q-57 0 -144.5 10t-146.5 20l-59 11l20 186q212 -29 318 -29t157.5 35.5t51.5 112.5q0 65 -52.5 93.5t-190.5 62.5q-22 5 -34 8q-67 17 -111 32.5t-85.5 40t-64.5 56t-36.5 77.5t-13.5 107zM289 512q0 -68 34 -98t126 -49 q105 -23 180 -58q12 16 26.5 67.5t14.5 96.5q0 37 -12.5 62.5t-42 42t-51.5 24t-68 18.5q-16 4 -57 14t-68 17.5t-37 12.5q-13 -24 -29 -68.5t-16 -81.5z" />
<glyph unicode="&#xa8;" horiz-adv-x="1200" d="M170 1247v240h182v-240h-182zM557 1247v240h180v-240h-180z" />
<glyph unicode="&#xa9;" horiz-adv-x="1290" d="M90 889q0 162 71 292.5t198 204.5t286 74q162 0 289.5 -78t195.5 -207.5t68 -285.5q0 -161 -68.5 -290.5t-196.5 -205.5t-292 -76q-235 0 -393 165t-158 407zM201 889q0 -193 126 -328t314 -135q126 0 229 62t160 168t57 233q0 126 -57.5 232.5t-160 169.5t-226.5 63 q-188 0 -315 -136t-127 -329zM406 895q0 175 58.5 249.5t199.5 74.5q41 0 80.5 -6.5t59.5 -13.5l19 -7l-10 -148q-75 15 -141 15q-55 0 -74.5 -36.5t-19.5 -127.5q0 -94 20.5 -135t73.5 -41q28 0 63 3t57 6l21 3l10 -141q-66 -33 -166 -33q-137 0 -194 75t-57 263z" />
<glyph unicode="&#xaa;" horiz-adv-x="802" d="M86 891q0 93 56.5 139.5t174.5 52.5l158 9v47q0 53 -96 53q-37 0 -100.5 -3.5t-108.5 -6.5l-45 -4l-4 129q141 43 270 43q139 0 207 -48.5t68 -173.5v-284q18 -21 47 -25l-4 -139q-79 0 -124.5 8t-63 19t-34.5 34q-11 -7 -30 -16.5t-71.5 -26t-96.5 -16.5q-97 0 -150 56 t-53 153zM279 895q0 -64 67 -64q24 0 56 8.5t52 16.5l21 8v107l-123 -8q-39 -3 -56 -19t-17 -49z" />
<glyph unicode="&#xab;" horiz-adv-x="1079" d="M168 446v109l401 313v-198l-221 -166l221 -187v-198zM461 446v109l401 313v-198l-221 -166l221 -187v-198z" />
<glyph unicode="&#xac;" d="M123 520v199h885v-494h-201v295h-684z" />
<glyph unicode="&#xad;" horiz-adv-x="755" d="M113 444v201h528v-201h-528z" />
<glyph unicode="&#xae;" horiz-adv-x="1290" d="M90 889q0 246 157 408.5t396 162.5q122 0 227 -45.5t176.5 -123t111.5 -182t40 -220.5q0 -161 -68.5 -290.5t-196 -205.5t-290.5 -76q-156 0 -283 75.5t-198.5 206.5t-71.5 290zM201 889q0 -192 128 -327.5t314 -135.5q190 0 317 134.5t127 328.5q0 126 -57.5 232.5 t-160 169.5t-226.5 63q-187 0 -314.5 -136.5t-127.5 -328.5zM408 571v633h256q231 0 231 -205q0 -79 -19 -122.5t-69 -75.5l96 -230h-170l-76 203h-88v-203h-161zM567 897h86q84 0 84 90q0 92 -96 92h-74v-182z" />
<glyph unicode="&#xaf;" horiz-adv-x="925" d="M147 1294v181h603v-181h-603z" />
<glyph unicode="&#xb0;" d="M274 1126q0 134 83 216.5t216 82.5t216 -82.5t83 -216.5q0 -133 -82.5 -215t-216.5 -82t-216.5 82t-82.5 215zM406 1126q0 -75 46 -122.5t121 -47.5t123.5 47.5t48.5 122.5t-48.5 123.5t-123.5 48.5q-74 0 -120.5 -48t-46.5 -124z" />
<glyph unicode="&#xb1;" d="M106 55v201h934v-201h-934zM106 573v201h365v236h201v-236h368v-201h-368v-229h-201v229h-365z" />
<glyph unicode="&#xb2;" horiz-adv-x="573" d="M51 979v154l164 145q52 45 75 76.5t23 62.5q0 49 -86 49q-24 0 -65 -3.5t-70 -6.5l-29 -4l-8 166q140 20 230 20q118 0 167.5 -45.5t49.5 -150.5q0 -66 -28 -114.5t-91 -100.5l-98 -86h221v-162h-455z" />
<glyph unicode="&#xb3;" horiz-adv-x="573" d="M49 975l12 158q121 -13 197 -13q78 0 78 56q0 29 -18 41t-54 12h-135v147h133q24 0 40.5 15t16.5 39q0 26 -17.5 36.5t-53.5 10.5t-80.5 -3.5t-71.5 -6.5l-26 -3l-13 156q133 18 217 18q118 0 176 -42.5t58 -133.5q0 -57 -21.5 -94.5t-48.5 -52.5q42 -16 63 -50.5 t21 -103.5q0 -102 -60.5 -152.5t-170.5 -50.5q-44 0 -104.5 4t-98.5 8z" />
<glyph unicode="&#xb4;" horiz-adv-x="1132" d="M203 1368l463 195l65 -199l-469 -166z" />
<glyph unicode="&#xb5;" d="M166 -440v1464h221v-578q0 -151 35.5 -215.5t122.5 -64.5q31 0 64.5 15.5t59 37.5t46.5 44.5t32 38.5l11 15v707h221v-1024h-217l-2 123q-4 -6 -12.5 -16t-35.5 -35t-56 -44t-74 -35t-90 -16q-55 0 -105 13v-430h-221z" />
<glyph unicode="&#xb6;" horiz-adv-x="1140" d="M57 1004q0 89 20 164t61.5 136t113.5 95.5t168 34.5h637v-181h-103v-1253h-180v1253h-164v-1253h-182v649q-159 0 -265 101t-106 254z" />
<glyph unicode="&#xb7;" horiz-adv-x="452" d="M113 457v301h227v-301h-227z" />
<glyph unicode="&#xb8;" horiz-adv-x="1619" d="M719 -434l6 139q68 -4 109 -4q77 0 77 59q0 54 -77 54h-62v196h92v-88h15q45 0 79.5 -7t67 -24.5t50.5 -54t18 -90.5q0 -96 -54 -147.5t-147 -51.5q-37 0 -80.5 4.5t-68.5 9.5z" />
<glyph unicode="&#xb9;" horiz-adv-x="573" d="M41 1468l215 150h164v-639h-180v440l-115 -78z" />
<glyph unicode="&#xba;" horiz-adv-x="776" d="M82 1020q0 175 78.5 252.5t224.5 77.5q208 0 272 -133q37 -79 37 -197q0 -340 -309 -340q-250 0 -293 229q-10 41 -10 111zM264 1020q0 -14 6 -74q7 -62 32.5 -82t82.5 -20q74 0 100.5 35.5t26.5 140.5q0 31 -4 67q-9 57 -37.5 78t-85.5 21q-68 0 -94.5 -35t-26.5 -131z " />
<glyph unicode="&#xbb;" horiz-adv-x="1110" d="M219 123v199l221 165l-221 187v198l402 -327v-109zM539 123v199l221 165l-221 187v198l401 -327v-109z" />
<glyph unicode="&#xbc;" horiz-adv-x="1241" d="M14 1468l215 150h164v-639h-180v440l-115 -78zM195 37l542 1423l203 -71l-543 -1426zM702 84v149l107 406h201l-125 -393h96l20 182h158v-182h37v-162h-37v-84h-178v84h-279z" />
<glyph unicode="&#xbd;" horiz-adv-x="1298" d="M14 1468l215 150h164v-639h-180v440l-115 -78zM195 37l542 1423l203 -71l-543 -1426zM782 0v154l164 145q52 45 75 76.5t23 62.5q0 49 -86 49q-24 0 -64.5 -3.5t-69.5 -7.5l-29 -3l-9 166q140 20 230 20q118 0 167.5 -45.5t49.5 -150.5q0 -66 -28 -114.5t-91 -100.5 l-98 -86h221v-162h-455z" />
<glyph unicode="&#xbe;" horiz-adv-x="1277" d="M59 975l13 158q120 -13 196 -13q78 0 78 56q0 29 -18 41t-54 12h-135v147h133q24 0 41 15t17 39q0 47 -72 47q-36 0 -80.5 -3.5t-71.5 -6.5l-26 -3l-12 156q133 18 217 18q118 0 175.5 -42.5t57.5 -133.5q0 -57 -21 -94.5t-48 -52.5q42 -16 62.5 -50.5t20.5 -103.5 q0 -102 -60.5 -152.5t-170.5 -50.5q-44 0 -104.5 4t-98.5 8zM233 37l543 1423l203 -71l-543 -1426zM739 84v149l107 406h201l-125 -393h96l20 182h158v-182h37v-162h-37v-84h-178v84h-279z" />
<glyph unicode="&#xbf;" horiz-adv-x="843" d="M55 -41q0 102 46 180t173 211q53 59 76 97.5t23 80.5v80h215q14 -64 14 -123q0 -77 -36 -133.5t-138 -161.5q-82 -86 -109.5 -130t-27.5 -101q0 -93 44.5 -127.5t145.5 -34.5q46 0 118.5 8.5t121.5 17.5l49 9l23 -174q-211 -59 -336 -59q-209 0 -305.5 82.5t-96.5 277.5z M373 727v297h229v-297h-229z" />
<glyph unicode="&#xc0;" horiz-adv-x="1130" d="M35 0l323 1403h414l322 -1403h-228l-71 293h-457l-76 -293h-227zM258 1733l66 196l464 -188l-61 -174zM377 494h375l-166 710h-43z" />
<glyph unicode="&#xc1;" horiz-adv-x="1130" d="M35 0l323 1403h414l322 -1403h-228l-71 293h-457l-76 -293h-227zM344 1753l463 195l65 -199l-469 -164zM377 494h375l-166 710h-43z" />
<glyph unicode="&#xc2;" horiz-adv-x="1130" d="M35 0l323 1403h414l322 -1403h-228l-71 293h-457l-76 -293h-227zM221 1608l273 299h131l274 -299h-209l-129 143l-131 -143h-209zM377 494h375l-166 710h-43z" />
<glyph unicode="&#xc3;" horiz-adv-x="1130" d="M35 0l323 1403h414l322 -1403h-228l-71 293h-457l-76 -293h-227zM215 1784q4 5 12 14t32 31t46.5 39t53 31t55.5 14q48 0 115.5 -24.5t124 -49t77.5 -24.5t59.5 20.5t66.5 41.5l28 21l43 -153q-4 -5 -12 -13.5t-31.5 -30.5t-46 -39t-52 -30.5t-53.5 -13.5 q-51 0 -169.5 49t-151.5 49q-24 0 -63 -21.5t-66 -42.5l-27 -22zM377 494h375l-166 710h-43z" />
<glyph unicode="&#xc4;" horiz-adv-x="1130" d="M35 0l323 1403h414l322 -1403h-228l-71 293h-457l-76 -293h-227zM281 1636v240h180v-240h-180zM377 494h375l-166 710h-43zM678 1636v240h180v-240h-180z" />
<glyph unicode="&#xc5;" horiz-adv-x="1130" d="M35 0l315 1366q-28 51 -28 123q0 113 65 169t180 56q110 0 178 -57t68 -168q0 -73 -33 -127l314 -1362h-228l-71 293h-457l-76 -293h-227zM377 494h375l-166 710h-43zM467 1489q0 -38 26.5 -58t73.5 -20q48 0 74.5 20t26.5 58q0 37 -27 58.5t-74 21.5q-46 0 -73 -21.5 t-27 -58.5z" />
<glyph unicode="&#xc6;" horiz-adv-x="1558" d="M33 0l327 1419h1121v-217h-600v-393h483v-207h-483v-387h600v-215h-813v295h-349l-71 -295h-215zM365 508h303v696h-142z" />
<glyph unicode="&#xc7;" horiz-adv-x="1021" d="M94 705q0 374 113 547t379 173q69 0 161 -11.5t149 -23.5l58 -12l-10 -180q-202 29 -323 29q-162 0 -226.5 -123.5t-64.5 -398.5q0 -105 7.5 -182.5t27 -145.5t52.5 -110.5t85.5 -66.5t124.5 -24q48 0 127.5 7t134.5 15l55 7l8 -185q-194 -41 -362 -43v-55h14 q45 0 79.5 -7t67 -24.5t50.5 -54t18 -90.5q0 -96 -54 -147.5t-147 -51.5q-37 0 -80.5 4.5t-68.5 9.5l-25 5l7 139q67 -4 108 -4q78 0 78 59q0 54 -78 54h-61v170q-95 11 -165.5 49.5t-116 98t-73 148.5t-38.5 190.5t-11 234.5z" />
<glyph unicode="&#xc8;" horiz-adv-x="1032" d="M141 0v1403h813v-199h-583v-397h469v-201h-469v-407h583v-199h-813zM217 1733l66 196l465 -188l-62 -174z" />
<glyph unicode="&#xc9;" horiz-adv-x="1032" d="M141 0v1403h813v-199h-583v-397h469v-201h-469v-407h583v-199h-813zM311 1753l463 195l66 -199l-469 -164z" />
<glyph unicode="&#xca;" horiz-adv-x="1032" d="M141 0v1403h813v-199h-583v-397h469v-201h-469v-407h583v-199h-813zM207 1612l272 299h131l275 -299h-209l-129 143l-131 -143h-209z" />
<glyph unicode="&#xcb;" horiz-adv-x="1032" d="M141 0v1403h813v-199h-583v-397h469v-201h-469v-407h583v-199h-813zM272 1636v240h181v-240h-181zM670 1636v240h180v-240h-180z" />
<glyph unicode="&#xcc;" horiz-adv-x="512" d="M-102 1733l65 196l465 -188l-61 -174zM141 0v1403h230v-1403h-230z" />
<glyph unicode="&#xcd;" horiz-adv-x="512" d="M78 1753l463 195l65 -199l-469 -164zM141 0v1403h230v-1403h-230z" />
<glyph unicode="&#xce;" horiz-adv-x="512" d="M-82 1610l272 299h132l274 -299h-209l-129 143l-131 -143h-209zM141 0v1403h230v-1403h-230z" />
<glyph unicode="&#xcf;" horiz-adv-x="512" d="M-35 1655v239h180v-239h-180zM141 0v1403h230v-1403h-230zM362 1655v239h181v-239h-181z" />
<glyph unicode="&#xd0;" horiz-adv-x="1228" d="M41 594v225h111v584h458q156 0 258.5 -39t161 -125t82 -205.5t23.5 -298.5q0 -152 -14 -263t-49 -203.5t-94 -149.5t-150.5 -88t-217.5 -31h-458v594h-111zM381 201h229q54 0 96.5 13t73 35.5t52 60t34.5 78.5t20.5 99.5t10 115t2.5 132.5q0 103 -5.5 170t-22.5 129 t-48.5 96t-84 54t-128.5 20h-229v-385h264v-225h-264v-393z" />
<glyph unicode="&#xd1;" horiz-adv-x="1310" d="M141 0v1403h371l412 -1163h26v1163h219v-1403h-358l-412 1176h-28v-1176h-230zM303 1780q4 5 12 14t32 31t46.5 39t53 31t55.5 14q48 0 115.5 -24.5t124 -49.5t77.5 -25t59.5 21t66.5 42l28 21l43 -153q-4 -5 -12 -13.5t-31.5 -30.5t-46 -39t-52 -30.5t-53.5 -13.5 q-51 0 -169.5 49t-151.5 49q-24 0 -63 -21.5t-66 -42.5l-27 -22z" />
<glyph unicode="&#xd2;" horiz-adv-x="1230" d="M92 715q0 266 49 420t166 223q111 67 307 67q152 0 252 -38.5t161.5 -127t86.5 -218.5t25 -326q0 -276 -53.5 -439.5t-180.5 -234.5q-110 -64 -291 -64q-150 0 -250.5 43t-161 136.5t-85.5 227.5t-25 331zM311 1733l66 196l465 -188l-62 -174zM328 715q0 -125 6.5 -206.5 t24 -150t49.5 -106t82 -57t124 -19.5q85 0 148 29q82 44 111.5 160.5t29.5 349.5q0 124 -6.5 203.5t-24 143.5t-50.5 97.5t-83 50.5t-125 17q-80 0 -141 -23q-88 -36 -116.5 -144t-28.5 -345z" />
<glyph unicode="&#xd3;" horiz-adv-x="1230" d="M92 715q0 266 49 420t166 223q111 67 307 67q152 0 252 -38.5t161.5 -127t86.5 -218.5t25 -326q0 -276 -53.5 -439.5t-180.5 -234.5q-110 -64 -291 -64q-150 0 -250.5 43t-161 136.5t-85.5 227.5t-25 331zM328 715q0 -125 6.5 -206.5t24 -150t49.5 -106t82 -57t124 -19.5 q85 0 148 29q82 44 111.5 160.5t29.5 349.5q0 124 -6.5 203.5t-24 143.5t-50.5 97.5t-83 50.5t-125 17q-80 0 -141 -23q-88 -36 -116.5 -144t-28.5 -345zM379 1753l463 195l65 -199l-469 -164z" />
<glyph unicode="&#xd4;" horiz-adv-x="1230" d="M92 715q0 266 49 420t166 223q111 67 307 67q152 0 252 -38.5t161.5 -127t86.5 -218.5t25 -326q0 -276 -53.5 -439.5t-180.5 -234.5q-110 -64 -291 -64q-150 0 -250.5 43t-161 136.5t-85.5 227.5t-25 331zM276 1608l273 299h131l274 -299h-209l-129 143l-131 -143h-209z M328 715q0 -125 6.5 -206.5t24 -150t49.5 -106t82 -57t124 -19.5q85 0 148 29q82 44 111.5 160.5t29.5 349.5q0 124 -6.5 203.5t-24 143.5t-50.5 97.5t-83 50.5t-125 17q-80 0 -141 -23q-88 -36 -116.5 -144t-28.5 -345z" />
<glyph unicode="&#xd5;" horiz-adv-x="1230" d="M92 715q0 266 49 420t166 223q111 67 307 67q152 0 252 -38.5t161.5 -127t86.5 -218.5t25 -326q0 -276 -53.5 -439.5t-180.5 -234.5q-110 -64 -291 -64q-150 0 -250.5 43t-161 136.5t-85.5 227.5t-25 331zM264 1780q4 5 12 14t32 31t46.5 39t53 31t55.5 14 q48 0 115.5 -24.5t124 -49.5t77.5 -25t59.5 21t66.5 42l28 21l43 -153q-4 -5 -12 -13.5t-31.5 -30.5t-46 -39t-52 -30.5t-53.5 -13.5q-51 0 -169.5 49t-151.5 49q-24 0 -63 -21.5t-66 -42.5l-27 -22zM328 715q0 -125 6.5 -206.5t24 -150t49.5 -106t82 -57t124 -19.5 q85 0 148 29q82 44 111.5 160.5t29.5 349.5q0 124 -6.5 203.5t-24 143.5t-50.5 97.5t-83 50.5t-125 17q-80 0 -141 -23q-88 -36 -116.5 -144t-28.5 -345z" />
<glyph unicode="&#xd6;" horiz-adv-x="1230" d="M92 715q0 266 49 420t166 223q111 67 307 67q152 0 252 -38.5t161.5 -127t86.5 -218.5t25 -326q0 -276 -53.5 -439.5t-180.5 -234.5q-110 -64 -291 -64q-150 0 -250.5 43t-161 136.5t-85.5 227.5t-25 331zM313 1642v240h201v-240h-201zM328 715q0 -125 6.5 -206.5 t24 -150t49.5 -106t82 -57t124 -19.5q85 0 148 29q82 44 111.5 160.5t29.5 349.5q0 124 -6.5 203.5t-24 143.5t-50.5 97.5t-83 50.5t-125 17q-80 0 -141 -23q-88 -36 -116.5 -144t-28.5 -345zM719 1642v240h199v-240h-199z" />
<glyph unicode="&#xd7;" d="M127 209l309 303l-307 303l141 141l303 -307l306 309l139 -141l-309 -305l309 -303l-141 -141l-304 309l-303 -309z" />
<glyph unicode="&#xd8;" horiz-adv-x="1230" d="M92 715q0 266 49 420t166 223q111 67 307 67q146 0 234 -32l110 247l140 -51l-121 -272q87 -77 124.5 -223t37.5 -379q0 -276 -53.5 -439.5t-180.5 -234.5q-110 -64 -291 -64q-122 0 -217 31l-110 -250l-131 68l112 254q-95 82 -135.5 236t-40.5 399zM328 715 q0 -289 45 -400l184 418l207 467q-58 27 -150 27q-80 0 -141 -23q-88 -36 -116.5 -144t-28.5 -345zM481 199q50 -23 133 -23q85 0 148 29q82 44 111.5 160.5t29.5 349.5q0 254 -35 358l-178 -403z" />
<glyph unicode="&#xd9;" horiz-adv-x="1222" d="M133 455v948h229v-967q0 -139 58 -199.5t192 -60.5q135 0 192.5 60t57.5 200v967h228v-948q0 -249 -114.5 -363.5t-363.5 -114.5q-250 0 -364.5 114.5t-114.5 363.5zM332 1733l65 196l465 -188l-61 -174z" />
<glyph unicode="&#xda;" horiz-adv-x="1222" d="M133 455v948h229v-967q0 -139 58 -199.5t192 -60.5q135 0 192.5 60t57.5 200v967h228v-948q0 -249 -114.5 -363.5t-363.5 -114.5q-250 0 -364.5 114.5t-114.5 363.5zM352 1753l463 195l66 -199l-469 -164z" />
<glyph unicode="&#xdb;" horiz-adv-x="1222" d="M0 1911l272 299h131l275 -299h-209l-129 143l-131 -143h-209zM133 455v948h229v-967q0 -139 58 -199.5t192 -60.5q135 0 192.5 60t57.5 200v967h228v-948q0 -249 -114.5 -363.5t-363.5 -114.5q-250 0 -364.5 114.5t-114.5 363.5z" />
<glyph unicode="&#xdc;" horiz-adv-x="1222" d="M133 455v948h229v-967q0 -139 58 -199.5t192 -60.5q135 0 192.5 60t57.5 200v967h228v-948q0 -249 -114.5 -363.5t-363.5 -114.5q-250 0 -364.5 114.5t-114.5 363.5zM309 1642v240h203v-240h-203zM715 1642v240h198v-240h-198z" />
<glyph unicode="&#xdd;" horiz-adv-x="1026" d="M8 1403h242l262 -584l260 584h242l-393 -828v-575h-213v575zM305 1753l463 195l66 -199l-469 -164z" />
<glyph unicode="&#xde;" horiz-adv-x="1130" d="M141 0v1419h228v-213h239q101 0 184.5 -28.5t147.5 -86t99.5 -152.5t35.5 -220q0 -238 -121 -368t-346 -130h-239v-221h-228zM369 422h237q115 0 174.5 81.5t59.5 215.5q0 78 -22.5 141t-77 105.5t-134.5 42.5h-237v-586z" />
<glyph unicode="&#xdf;" horiz-adv-x="1118" d="M123 0v1067q0 115 25 193.5t79 125.5t129.5 67t184.5 20q220 0 315.5 -71t95.5 -237q0 -106 -38.5 -163.5t-133.5 -104.5q-66 -34 -89 -57t-23 -60q0 -38 33 -65.5t122 -69.5q69 -35 110 -62t74.5 -63t47.5 -79.5t14 -102.5q0 -198 -85 -279.5t-265 -81.5q-56 0 -128 8.5 t-115 17.5l-44 9l6 164q189 -10 232 -10q107 0 148.5 37.5t41.5 115.5q0 57 -35 89.5t-143 85.5q-118 55 -171.5 113t-53.5 153q0 101 30 150t121 96q79 41 106 72t27 79q0 72 -44.5 98.5t-155.5 26.5q-105 0 -157 -44.5t-52 -164.5v-1073h-209z" />
<glyph unicode="&#xe0;" horiz-adv-x="1032" d="M80 496q0 100 11 179t39 150.5t74 119t119 75t171 27.5q61 0 164.5 -9.5t177.5 -18.5l73 -9v-736l11 -272l-222 -8q-10 81 -10 149q-4 -7 -11.5 -18t-33 -39.5t-54 -50.5t-74.5 -40t-95 -18q-183 0 -261.5 127.5t-78.5 391.5zM262 1374l64 185l465 -187l-56 -164z M305 496q0 -79 7 -135.5t24.5 -102.5t50.5 -69t82 -23q36 0 72 18t61.5 43.5t45.5 51t30 43.5l10 18v502q-125 16 -174 16q-118 0 -163.5 -86.5t-45.5 -275.5z" />
<glyph unicode="&#xe1;" horiz-adv-x="1032" d="M80 496q0 100 11 179t39 150.5t74 119t119 75t171 27.5q61 0 164.5 -9.5t177.5 -18.5l73 -9v-736l11 -272l-222 -8q-10 81 -10 149q-4 -7 -11.5 -18t-33 -39.5t-54 -50.5t-74.5 -40t-95 -18q-183 0 -261.5 127.5t-78.5 391.5zM305 496q0 -79 7 -135.5t24.5 -102.5 t50.5 -69t82 -23q36 0 72 18t61.5 43.5t45.5 51t30 43.5l10 18v502q-125 16 -174 16q-118 0 -163.5 -86.5t-45.5 -275.5zM346 1368l463 195l65 -199l-468 -166z" />
<glyph unicode="&#xe2;" horiz-adv-x="1032" d="M80 496q0 100 11 179t39 150.5t74 119t119 75t171 27.5q61 0 164.5 -9.5t177.5 -18.5l73 -9v-736l11 -272l-222 -8q-10 81 -10 149q-4 -7 -11.5 -18t-33 -39.5t-54 -50.5t-74.5 -40t-95 -18q-183 0 -261.5 127.5t-78.5 391.5zM201 1188l252 338h163l256 -338h-227 l-108 147l-111 -147h-225zM305 496q0 -79 7 -135.5t24.5 -102.5t50.5 -69t82 -23q36 0 72 18t61.5 43.5t45.5 51t30 43.5l10 18v502q-125 16 -174 16q-118 0 -163.5 -86.5t-45.5 -275.5z" />
<glyph unicode="&#xe3;" horiz-adv-x="1032" d="M80 496q0 100 11 179t39 150.5t74 119t119 75t171 27.5q61 0 164.5 -9.5t177.5 -18.5l73 -9v-736l11 -272l-222 -8q-10 81 -10 149q-4 -7 -11.5 -18t-33 -39.5t-54 -50.5t-74.5 -40t-95 -18q-183 0 -261.5 127.5t-78.5 391.5zM225 1395q4 5 11.5 13.5t30.5 29.5t45 37 t52 29.5t56 13.5q56 0 158.5 -46.5t123.5 -46.5t58 20t64 40l26 20l41 -153q-4 -5 -11.5 -13.5t-30 -29.5t-44 -37t-50.5 -29.5t-53 -13.5q-51 0 -154.5 47t-131.5 47q-23 0 -61 -21t-65 -42l-26 -21zM305 496q0 -79 7 -135.5t24.5 -102.5t50.5 -69t82 -23q36 0 72 18 t61.5 43.5t45.5 51t30 43.5l10 18v502q-125 16 -174 16q-118 0 -163.5 -86.5t-45.5 -275.5z" />
<glyph unicode="&#xe4;" horiz-adv-x="1032" d="M80 496q0 100 11 179t39 150.5t74 119t119 75t171 27.5q61 0 164.5 -9.5t177.5 -18.5l73 -9v-736l11 -272l-222 -8q-10 81 -10 149q-4 -7 -11.5 -18t-33 -39.5t-54 -50.5t-74.5 -40t-95 -18q-183 0 -261.5 127.5t-78.5 391.5zM227 1247v240h201v-240h-201zM305 496 q0 -79 7 -135.5t24.5 -102.5t50.5 -69t82 -23q36 0 72 18t61.5 43.5t45.5 51t30 43.5l10 18v502q-125 16 -174 16q-118 0 -163.5 -86.5t-45.5 -275.5zM633 1247v240h198v-240h-198z" />
<glyph unicode="&#xe5;" horiz-adv-x="1032" d="M80 496q0 100 11 179t39 150.5t74 119t119 75t171 27.5q61 0 164.5 -9.5t177.5 -18.5l73 -9v-736l11 -272l-222 -8q-10 81 -10 149q-4 -7 -11.5 -18t-33 -39.5t-54 -50.5t-74.5 -40t-95 -18q-183 0 -261.5 127.5t-78.5 391.5zM305 496q0 -79 7 -135.5t24.5 -102.5 t50.5 -69t82 -23q36 0 72 18t61.5 43.5t45.5 51t30 43.5l10 18v502q-125 16 -174 16q-118 0 -163.5 -86.5t-45.5 -275.5zM358 1348q0 95 54 154t145 59q89 0 143 -59.5t54 -153.5q0 -98 -54 -154.5t-143 -56.5q-93 0 -146 56t-53 155zM481 1348q0 -32 22 -54t54 -22 q31 0 52.5 22t21.5 54q0 31 -21.5 52t-52.5 21q-32 0 -54 -21t-22 -52z" />
<glyph unicode="&#xe6;" horiz-adv-x="1497" d="M61 301q0 139 62.5 210t177.5 95q118 21 311 31v38.5t-2 37.5t-6 39t-12.5 31.5t-20.5 28.5t-31 16.5t-44 7.5q-64 0 -157.5 -7t-154.5 -13l-61 -7l-8 199q240 36 383 36q187 0 258 -112q95 112 274 112q294 0 369 -268q24 -92 24 -233v-127h-598q0 -62 19 -117 q42 -119 194 -119q61 0 148 5t144 9l56 5l5 -174q-187 -48 -369 -48q-200 0 -299 105q-205 -105 -373 -105q-132 0 -210.5 93.5t-78.5 230.5zM274 311q0 -55 27.5 -98t81.5 -43q83 0 266 45q-37 87 -37 250q-136 -8 -213 -19q-125 -15 -125 -135zM825 592h389q0 107 -26 166 q-43 94 -164 94q-199 0 -199 -260z" />
<glyph unicode="&#xe7;" horiz-adv-x="821" d="M80 520q0 269 98 396.5t303 127.5q58 0 126.5 -9t107.5 -18l39 -9l-6 -170q-137 14 -211 14q-130 0 -181 -79t-51 -253q0 -90 9 -149t33 -107.5t71 -71t119 -22.5q33 0 85.5 3.5t89.5 6.5l36 4l6 -168q-146 -39 -279 -39h-10v-55h14q45 0 79.5 -7t67 -24.5t50.5 -54 t18 -90.5q0 -96 -53.5 -147.5t-146.5 -51.5q-37 0 -81 4.5t-69 9.5l-25 5l7 139q67 -4 108 -4q78 0 78 59q0 54 -78 54h-61v174q-83 15 -140.5 57t-90.5 111.5t-47.5 157.5t-14.5 206z" />
<glyph unicode="&#xe8;" horiz-adv-x="940" d="M76 483q0 124 23.5 224t73 176.5t132.5 118.5t195 42q186 0 281.5 -72.5t95.5 -230.5q0 -95 -30.5 -156.5t-96.5 -95t-152 -46.5t-215 -13h-84v-33q0 -105 53.5 -166t155.5 -61q63 0 143 8t129 16l49 7l7 -160q-17 -7 -47.5 -17t-120.5 -27t-176 -17q-216 0 -316 121.5 t-100 381.5zM188 1374l64 185l465 -187l-55 -164zM301 596h82q152 0 213 28t61 115q0 70 -38 98.5t-119 28.5q-196 0 -199 -270z" />
<glyph unicode="&#xe9;" horiz-adv-x="940" d="M76 483q0 124 23.5 224t73 176.5t132.5 118.5t195 42q186 0 281.5 -72.5t95.5 -230.5q0 -95 -30.5 -156.5t-96.5 -95t-152 -46.5t-215 -13h-84v-33q0 -105 53.5 -166t155.5 -61q63 0 143 8t129 16l49 7l7 -160q-17 -7 -47.5 -17t-120.5 -27t-176 -17q-216 0 -316 121.5 t-100 381.5zM250 1368l463 195l65 -199l-469 -166zM301 596h82q152 0 213 28t61 115q0 70 -38 98.5t-119 28.5q-196 0 -199 -270z" />
<glyph unicode="&#xea;" horiz-adv-x="940" d="M76 483q0 124 23.5 224t73 176.5t132.5 118.5t195 42q186 0 281.5 -72.5t95.5 -230.5q0 -95 -30.5 -156.5t-96.5 -95t-152 -46.5t-215 -13h-84v-33q0 -105 53.5 -166t155.5 -61q63 0 143 8t129 16l49 7l7 -160q-17 -7 -47.5 -17t-120.5 -27t-176 -17q-216 0 -316 121.5 t-100 381.5zM162 1188l252 338h164l256 -338h-228l-108 147l-111 -147h-225zM301 596h82q152 0 213 28t61 115q0 70 -38 98.5t-119 28.5q-196 0 -199 -270z" />
<glyph unicode="&#xeb;" horiz-adv-x="940" d="M76 483q0 124 23.5 224t73 176.5t132.5 118.5t195 42q186 0 281.5 -72.5t95.5 -230.5q0 -95 -30.5 -156.5t-96.5 -95t-152 -46.5t-215 -13h-84v-33q0 -105 53.5 -166t155.5 -61q63 0 143 8t129 16l49 7l7 -160q-17 -7 -47.5 -17t-120.5 -27t-176 -17q-216 0 -316 121.5 t-100 381.5zM215 1247v240h201v-240h-201zM301 596h82q152 0 213 28t61 115q0 70 -38 98.5t-119 28.5q-196 0 -199 -270zM621 1247v240h198v-240h-198z" />
<glyph unicode="&#xec;" horiz-adv-x="466" d="M-131 1374l63 185l465 -187l-55 -164zM123 0v1024h221v-1024h-221z" />
<glyph unicode="&#xed;" horiz-adv-x="466" d="M82 1368l463 195l65 -199l-469 -166zM123 0v1024h221v-1024h-221z" />
<glyph unicode="&#xee;" horiz-adv-x="466" d="M-100 1188l250 338h165l254 -338h-227l-106 147l-111 -147h-225zM123 0v1024h221v-1024h-221z" />
<glyph unicode="&#xef;" horiz-adv-x="466" d="M-68 1247v240h201v-240h-201zM123 0v1024h221v-1024h-221zM338 1247v240h199v-240h-199z" />
<glyph unicode="&#xf0;" horiz-adv-x="1069" d="M74 440q0 218 107 334.5t304 116.5q60 0 130.5 -14.5t110.5 -28.5l40 -14q-14 123 -70 197.5t-182 127.5l-195 -155l-96 126l109 87q-56 16 -168 38l35 195q196 -22 333 -72l177 140l98 -125l-113 -90q293 -180 293 -576q0 -394 -109.5 -569.5t-361.5 -175.5 q-220 0 -331 120.5t-111 337.5zM299 438q0 -109 53.5 -176t163.5 -67q129 0 189 101.5t61 334.5q-7 4 -40.5 16.5t-99.5 26.5t-126 14q-97 0 -149 -64t-52 -186z" />
<glyph unicode="&#xf1;" horiz-adv-x="1048" d="M123 0h221v707q4 6 11.5 16.5t31 36.5t47.5 45.5t58 36t65 16.5q88 0 123 -64t35 -216v-578h221v635q0 90 -18 163t-55.5 130t-101.5 88t-151 31q-45 0 -89.5 -15t-75.5 -36.5t-55 -43t-36 -36.5l-12 -15l-2 123h-217v-1024zM217 1395q4 5 11.5 13.5t30.5 29.5t45 37 t52 29.5t56 13.5q56 0 158.5 -46.5t123.5 -46.5t58 20t64 40l26 20l41 -153q-4 -5 -11.5 -13.5t-30 -29.5t-44 -37t-50.5 -29.5t-53 -13.5q-51 0 -154.5 47t-131.5 47q-23 0 -61 -21t-65 -42l-26 -21z" />
<glyph unicode="&#xf2;" horiz-adv-x="995" d="M78 516q0 97 12 174t41 145t76 113t120.5 70.5t170.5 25.5q120 0 203.5 -38t130 -111t66.5 -165t20 -214q0 -98 -10 -174.5t-38 -147t-74.5 -116.5t-121.5 -73.5t-176 -27.5t-176 27.5t-121.5 73.5t-74.5 116.5t-38 147t-10 174.5zM180 1374l64 185l465 -187l-56 -164z M291 516q0 -68 4 -116t16.5 -95t35 -75.5t60.5 -46t91 -17.5t90.5 17.5t60 46t35.5 75.5t17 95.5t4 115.5q0 83 -9 142t-31.5 105.5t-63.5 69.5t-103 23t-103 -23t-63.5 -69.5t-31.5 -105.5t-9 -142z" />
<glyph unicode="&#xf3;" horiz-adv-x="995" d="M78 516q0 97 12 174t41 145t76 113t120.5 70.5t170.5 25.5q120 0 203.5 -38t130 -111t66.5 -165t20 -214q0 -98 -10 -174.5t-38 -147t-74.5 -116.5t-121.5 -73.5t-176 -27.5t-176 27.5t-121.5 73.5t-74.5 116.5t-38 147t-10 174.5zM281 1368l462 195l66 -199l-469 -166z M291 516q0 -68 4 -116t16.5 -95t35 -75.5t60.5 -46t91 -17.5t90.5 17.5t60 46t35.5 75.5t17 95.5t4 115.5q0 83 -9 142t-31.5 105.5t-63.5 69.5t-103 23t-103 -23t-63.5 -69.5t-31.5 -105.5t-9 -142z" />
<glyph unicode="&#xf4;" horiz-adv-x="995" d="M78 516q0 97 12 174t41 145t76 113t120.5 70.5t170.5 25.5q120 0 203.5 -38t130 -111t66.5 -165t20 -214q0 -98 -10 -174.5t-38 -147t-74.5 -116.5t-121.5 -73.5t-176 -27.5t-176 27.5t-121.5 73.5t-74.5 116.5t-38 147t-10 174.5zM164 1188l250 338h166l254 -338h-228 l-106 147l-111 -147h-225zM291 516q0 -68 4 -116t16.5 -95t35 -75.5t60.5 -46t91 -17.5t90.5 17.5t60 46t35.5 75.5t17 95.5t4 115.5q0 83 -9 142t-31.5 105.5t-63.5 69.5t-103 23t-103 -23t-63.5 -69.5t-31.5 -105.5t-9 -142z" />
<glyph unicode="&#xf5;" horiz-adv-x="995" d="M78 516q0 97 12 174t41 145t76 113t120.5 70.5t170.5 25.5q120 0 203.5 -38t130 -111t66.5 -165t20 -214q0 -98 -10 -174.5t-38 -147t-74.5 -116.5t-121.5 -73.5t-176 -27.5t-176 27.5t-121.5 73.5t-74.5 116.5t-38 147t-10 174.5zM168 1395q4 5 11.5 13.5t30 29.5 t44.5 37t52 29.5t56 13.5q56 0 159 -46.5t124 -46.5t58 20t63 40l27 20l41 -153q-4 -5 -11.5 -13.5t-30 -29.5t-44 -37t-50.5 -29.5t-53 -13.5q-51 0 -155 47t-132 47q-23 0 -60.5 -21t-63.5 -42l-27 -21zM291 516q0 -68 4 -116t16.5 -95t35 -75.5t60.5 -46t91 -17.5 t90.5 17.5t60 46t35.5 75.5t17 95.5t4 115.5q0 83 -9 142t-31.5 105.5t-63.5 69.5t-103 23t-103 -23t-63.5 -69.5t-31.5 -105.5t-9 -142z" />
<glyph unicode="&#xf6;" horiz-adv-x="995" d="M78 516q0 97 12 174t41 145t76 113t120.5 70.5t170.5 25.5q120 0 203.5 -38t130 -111t66.5 -165t20 -214q0 -98 -10 -174.5t-38 -147t-74.5 -116.5t-121.5 -73.5t-176 -27.5t-176 27.5t-121.5 73.5t-74.5 116.5t-38 147t-10 174.5zM211 1247v240h182v-240h-182zM291 516 q0 -68 4 -116t16.5 -95t35 -75.5t60.5 -46t91 -17.5t90.5 17.5t60 46t35.5 75.5t17 95.5t4 115.5q0 83 -9 142t-31.5 105.5t-63.5 69.5t-103 23t-103 -23t-63.5 -69.5t-31.5 -105.5t-9 -142zM598 1247v240h180v-240h-180z" />
<glyph unicode="&#xf7;" d="M215 494v225h139v158h437v-158h141v-225h-717zM461 47v242h221v-242h-221z" />
<glyph unicode="&#xf8;" horiz-adv-x="993" d="M78 518q0 97 12 174t41 145t76 113t120.5 71t170.5 26q63 0 123 -13l77 205l133 -51l-83 -207q170 -118 170 -463q0 -98 -10 -174.5t-38 -147t-74.5 -116.5t-121.5 -73t-176 -27q-65 0 -133 14l-82 -217l-133 51l88 219q-89 65 -124.5 182.5t-35.5 288.5zM291 518 q0 -178 35 -252l106 269l119 317q-24 6 -53 6q-62 0 -103 -23t-63.5 -69.5t-31.5 -105.5t-9 -142zM432 174q27 -6 66 -6q53 0 90.5 17.5t60 46t35.5 75.5t17 95.5t4 115.5q0 172 -41 250l-111 -276z" />
<glyph unicode="&#xf9;" horiz-adv-x="1050" d="M115 389v635h221v-578q0 -151 35.5 -215.5t122.5 -64.5q31 0 64.5 15.5t59 37.5t46.5 44.5t32 38.5l11 15v707h221v-1024h-217l-2 123q-4 -6 -12.5 -16t-35.5 -35t-56.5 -44t-74.5 -35t-90 -16q-169 0 -247 103.5t-78 308.5zM209 1374l63 185l465 -187l-55 -164z" />
<glyph unicode="&#xfa;" horiz-adv-x="1050" d="M115 389v635h221v-578q0 -151 35.5 -215.5t122.5 -64.5q31 0 64.5 15.5t59 37.5t46.5 44.5t32 38.5l11 15v707h221v-1024h-217l-2 123q-4 -6 -12.5 -16t-35.5 -35t-56.5 -44t-74.5 -35t-90 -16q-169 0 -247 103.5t-78 308.5zM293 1368l463 195l65 -199l-469 -166z" />
<glyph unicode="&#xfb;" horiz-adv-x="1050" d="M115 389v635h221v-578q0 -151 35.5 -215.5t122.5 -64.5q31 0 64.5 15.5t59 37.5t46.5 44.5t32 38.5l11 15v707h221v-1024h-217l-2 123q-4 -6 -12.5 -16t-35.5 -35t-56.5 -44t-74.5 -35t-90 -16q-169 0 -247 103.5t-78 308.5zM190 1188l252 338h164l256 -338h-227 l-109 147l-110 -147h-226z" />
<glyph unicode="&#xfc;" horiz-adv-x="1050" d="M115 389v635h221v-578q0 -151 35.5 -215.5t122.5 -64.5q31 0 64.5 15.5t59 37.5t46.5 44.5t32 38.5l11 15v707h221v-1024h-217l-2 123q-4 -6 -12.5 -16t-35.5 -35t-56.5 -44t-74.5 -35t-90 -16q-169 0 -247 103.5t-78 308.5zM223 1247v240h203v-240h-203zM629 1247v240 h198v-240h-198z" />
<glyph unicode="&#xfd;" horiz-adv-x="925" d="M37 1024h217l188 -840h45l193 840h213l-358 -1464h-209l118 440h-161zM254 1368l463 195l65 -199l-469 -166z" />
<glyph unicode="&#xfe;" horiz-adv-x="1030" d="M123 -436v1882h221v-502q46 30 68.5 43.5t77.5 35t100 21.5q362 0 362 -526q0 -293 -105.5 -417t-332.5 -124q-32 0 -74.5 2.5t-69.5 5.5l-26 3v-424h-221zM344 193q139 -17 166 -17q119 0 168 85t49 257q0 59 -8.5 112.5t-28 104.5t-57.5 81t-90 30q-38 0 -88 -26 t-81 -52l-30 -25v-550z" />
<glyph unicode="&#xff;" horiz-adv-x="925" d="M37 1024h217l188 -840h45l193 840h213l-358 -1464h-209l118 440h-161zM162 1247v240h203v-240h-203zM567 1247v240h199v-240h-199z" />
<glyph unicode="&#x152;" horiz-adv-x="1728" d="M90 707q0 378 122 556.5t382 178.5q73 0 248 -23h809v-219h-596v-389h481v-209h-481v-383h596v-219h-805q-153 -23 -252 -23q-184 0 -295 82.5t-162 247.5q-47 155 -47 400zM311 709q0 -178 27 -289q28 -115 95.5 -169t189.5 -54q56 0 219 14v995q-158 15 -224 15 q-165 0 -236 -119t-71 -393z" />
<glyph unicode="&#x153;" horiz-adv-x="1595" d="M78 518q0 123 21 216t69 164.5t131.5 108.5t202.5 37q213 0 317 -145q106 145 301 145q289 0 367 -243q33 -104 33 -223v-162h-598q0 -72 22 -127q44 -109 191 -109q62 0 149 5t143 9l56 5l4 -174q-185 -48 -369 -48q-202 0 -305 134q-103 -134 -311 -134 q-289 0 -377 228q-47 119 -47 313zM289 518q0 -173 39 -252q47 -90 174 -90q55 0 94.5 20t61.5 50t34 78t15.5 90.5t3.5 101.5q0 111 -21 195q-40 135 -188 135q-121 0 -167 -80t-46 -248zM920 592h393q0 112 -25 166q-36 84 -162 84q-105 0 -154.5 -61t-51.5 -189z" />
<glyph unicode="&#x178;" horiz-adv-x="1026" d="M8 1403h242l262 -584l260 584h242l-393 -828v-575h-213v575zM225 1620v240h181v-240h-181zM623 1620v240h180v-240h-180z" />
<glyph unicode="&#x2c6;" horiz-adv-x="1619" d="M473 1188l250 338h131l254 -338h-209l-108 147l-111 -147h-207z" />
<glyph unicode="&#x2dc;" horiz-adv-x="897" d="M96 1395q4 5 11.5 13.5t30.5 29.5t45 37t52 29.5t56 13.5q56 0 158.5 -46.5t123.5 -46.5t58 20t63 40l27 20l41 -153q-4 -5 -11.5 -13.5t-30 -29.5t-44 -37t-50.5 -29.5t-53 -13.5q-51 0 -154.5 47t-131.5 47q-23 0 -61 -21t-64 -42l-27 -21z" />
<glyph unicode="&#x2000;" horiz-adv-x="1105" />
<glyph unicode="&#x2001;" horiz-adv-x="2210" />
<glyph unicode="&#x2002;" horiz-adv-x="1105" />
<glyph unicode="&#x2003;" horiz-adv-x="2210" />
<glyph unicode="&#x2004;" horiz-adv-x="736" />
<glyph unicode="&#x2005;" horiz-adv-x="552" />
<glyph unicode="&#x2006;" horiz-adv-x="368" />
<glyph unicode="&#x2007;" horiz-adv-x="368" />
<glyph unicode="&#x2008;" horiz-adv-x="276" />
<glyph unicode="&#x2009;" horiz-adv-x="442" />
<glyph unicode="&#x200a;" horiz-adv-x="122" />
<glyph unicode="&#x2010;" horiz-adv-x="755" d="M113 444v201h528v-201h-528z" />
<glyph unicode="&#x2011;" horiz-adv-x="755" d="M113 444v201h528v-201h-528z" />
<glyph unicode="&#x2012;" horiz-adv-x="755" d="M113 444v201h528v-201h-528z" />
<glyph unicode="&#x2013;" horiz-adv-x="1253" d="M115 451v190h1024v-190h-1024z" />
<glyph unicode="&#x2014;" horiz-adv-x="2277" d="M115 451v190h2048v-190h-2048z" />
<glyph unicode="&#x2018;" horiz-adv-x="438" d="M74 909l125 494h161l-73 -494h-213z" />
<glyph unicode="&#x2019;" horiz-adv-x="438" d="M86 909l74 494h213l-125 -494h-162z" />
<glyph unicode="&#x201a;" horiz-adv-x="436" d="M102 -166l35 238h103l-60 -238h-78z" />
<glyph unicode="&#x201c;" horiz-adv-x="802" d="M76 911l125 494h161l-73 -494h-213zM436 911l125 494h162l-74 -494h-213z" />
<glyph unicode="&#x201d;" horiz-adv-x="798" d="M86 909l74 494h213l-125 -494h-162zM446 909l74 494h213l-125 -494h-162z" />
<glyph unicode="&#x201e;" horiz-adv-x="761" d="M66 -338l124 494h162l-73 -494h-213zM311 -338l125 494h162l-74 -494h-213z" />
<glyph unicode="&#x2022;" horiz-adv-x="913" d="M201 211v577h512v-577h-512z" />
<glyph unicode="&#x2026;" horiz-adv-x="1406" d="M113 0v276h225v-276h-225zM590 0v276h225v-276h-225zM1067 0v276h225v-276h-225z" />
<glyph unicode="&#x202f;" horiz-adv-x="442" />
<glyph unicode="&#x2039;" horiz-adv-x="581" d="M66 446v109l401 313v-198l-221 -166l221 -187v-198z" />
<glyph unicode="&#x203a;" horiz-adv-x="581" d="M115 322v94l221 90l-221 80v96l401 -152v-51z" />
<glyph unicode="&#x205f;" horiz-adv-x="552" />
<glyph unicode="&#x20ac;" d="M111 397v176h77q-2 33 -2 107v68h-75v176h90q31 230 141 340t320 110q67 0 155.5 -11t143.5 -23l55 -11l-8 -174q-197 29 -314 29q-115 0 -177.5 -63t-86.5 -197h479v-176h-495v-68q0 -74 2 -107h493v-176h-473q27 -115 89 -171t175 -56q46 0 123 7t131 13l54 7l6 -177 q-188 -43 -352 -43q-211 0 -318 105t-139 315h-94z" />
<glyph unicode="&#x2122;" horiz-adv-x="1333" d="M156 1169v138h409v-138h-104v-489h-152v489h-153zM623 678v629h182l106 -369l115 369h182v-629h-141v401l-98 -364h-103l-102 364v-401h-141z" />
<glyph unicode="&#xe000;" horiz-adv-x="1024" d="M0 0v1024h1024v-1024h-1024z" />
</font>
</defs>
</svg>
