<?xml version="1.0" standalone="no"?>
<!DOCTYPE svg PUBLIC "-//W3C//DTD SVG 1.1//EN" "http://www.w3.org/Graphics/SVG/1.1/DTD/svg11.dtd" >
<svg xmlns="http://www.w3.org/2000/svg">
<metadata></metadata>
<defs>
<font id="TitilliumBoldItalic" horiz-adv-x="1146" >
<font-face units-per-em="2048" ascent="1536" descent="-512" />
<missing-glyph horiz-adv-x="450" />
<glyph horiz-adv-x="0" />
<glyph horiz-adv-x="2048" />
<glyph unicode=" "  horiz-adv-x="450" />
<glyph unicode="&#x09;" horiz-adv-x="450" />
<glyph unicode="&#xa0;" horiz-adv-x="450" />
<glyph unicode="!" horiz-adv-x="356" d="M68 0l63 276h225l-63 -276h-225zM188 504l205 930h234l-232 -930h-207z" />
<glyph unicode="&#x22;" horiz-adv-x="632" d="M336 922l115 493h387l-129 -493h-373z" />
<glyph unicode="#" d="M115 350l47 189h209l69 280h-209l48 187h208l88 352h195l-88 -352h258l88 352h195l-88 -352h208l-45 -187h-211l-69 -280h211l-47 -189h-209l-88 -350h-195l86 350h-256l-88 -350h-194l86 350h-209zM565 539h258l70 280h-258z" />
<glyph unicode="$" d="M186 47l37 160q110 -19 223 -29l187 440q-134 58 -191 127.5t-57 194.5q0 196 126 316t339 120q50 0 102 -6l92 219h150l-102 -239q40 -8 78.5 -18t56.5 -16l18 -5l-41 -158q-88 15 -184 25l-176 -410q144 -64 196 -130.5t52 -191.5q0 -223 -135.5 -346t-366.5 -123 q-14 0 -82 5l-94 -226h-146l103 244q-47 9 -93.5 20.5t-69.5 19.5zM590 170h2q274 0 274 252q0 54 -21.5 83.5t-86.5 59.5zM608 963q0 -53 23 -83.5t88 -60.5l155 371h-22q-114 0 -179 -60t-65 -167z" />
<glyph unicode="%" d="M262 12l811 1452l137 -47l-811 -1452zM319 1145q-36 -147 7.5 -221t158.5 -74q113 0 193.5 74.5t116.5 220.5t-7.5 218.5t-156.5 72.5q-240 0 -312 -291zM473.5 1028q-6.5 39 13.5 117q21 81 45.5 117t63.5 36t45.5 -37t-14.5 -116q-21 -83 -45 -119.5t-64 -36.5 q-38 0 -44.5 39zM686 295q72 291 309 291q236 0 164 -291q-36 -147 -115.5 -221t-193.5 -74t-157 74t-7 221zM837.5 177.5q6.5 -38.5 45.5 -38.5q38 0 62.5 36.5t45.5 119.5q21 79 15 116.5t-45 37.5t-63.5 -36.5t-43.5 -117.5q-23 -79 -16.5 -117.5z" />
<glyph unicode="&#x26;" horiz-adv-x="1306" d="M139 322q0 188 99.5 306.5t310.5 200.5q-57 105 -57 211q0 190 109 287.5t290 97.5q164 0 248 -68t84 -214q0 -151 -85 -244.5t-294 -175.5l186 -254q28 42 62 121.5t49 138.5h207q-26 -94 -86.5 -214.5t-114.5 -190.5l176 -213l-154 -134l-161 207q-197 -207 -461 -207 q-115 0 -196 25.5t-126.5 73t-65.5 108t-20 138.5zM371 346q0 -178 217 -178q83 0 169 44t140 110l-266 374q-145 -61 -202.5 -145.5t-57.5 -204.5zM715 1036q0 -117 49 -188q136 63 185.5 123t49.5 153q0 115 -112 115q-83 0 -127.5 -56t-44.5 -147z" />
<glyph unicode="'" horiz-adv-x="303" d="M262 922l115 493h207l-129 -493h-193z" />
<glyph unicode="(" horiz-adv-x="473" d="M131 254q0 134 26 276.5t68 264t92.5 237t101.5 204.5t93 156.5t68 103.5l26 36h207q-9 -14 -25.5 -40t-63.5 -108t-89.5 -166.5t-94.5 -208t-89.5 -240.5t-63 -255t-25.5 -260q0 -128 8 -254.5t16 -189.5l9 -62h-211q-6 21 -15 61t-23.5 172t-14.5 273z" />
<glyph unicode=")" horiz-adv-x="475" d="M-41 -242q9 14 25.5 40t63.5 108t89.5 166.5t94.5 208t89.5 240.5t63 255t25.5 260q0 128 -8 254.5t-16 189.5l-9 62h211q6 -21 15 -61t23.5 -172t14.5 -273q0 -134 -26 -276.5t-68 -264t-92.5 -237t-101.5 -204.5t-93 -156.5t-68 -103.5l-26 -36h-207z" />
<glyph unicode="*" horiz-adv-x="858" d="M342 938l217 162l-211 151l80 111l211 -154l82 252l131 -43l-80 -254h258v-131h-260l80 -250l-127 -39l-84 252l-215 -161z" />
<glyph unicode="+" d="M225 414v200h363v367h200v-367h369v-200h-369v-371h-200v371h-363z" />
<glyph unicode="," horiz-adv-x="366" d="M-72 -266l224 542h243l-284 -542h-183z" />
<glyph unicode="-" horiz-adv-x="608" d="M147 444l52 201h512l-49 -201h-515z" />
<glyph unicode="." horiz-adv-x="325" d="M51 0l62 276h225l-62 -276h-225z" />
<glyph unicode="/" horiz-adv-x="915" d="M80 37l881 1423l206 -74l-878 -1423z" />
<glyph unicode="0" d="M201 393q0 273 77.5 496t222 354t328.5 131q428 0 428 -420q0 -276 -79 -498.5t-223.5 -350.5t-327.5 -128q-426 0 -426 416zM434 422q0 -128 46.5 -188t150.5 -60q73 0 137.5 48t110 126t79 177t50 202t16.5 199q0 129 -46.5 191.5t-152.5 62.5q-91 0 -167.5 -74.5 t-124 -190t-73.5 -245t-26 -248.5z" />
<glyph unicode="1" d="M430 1065l508 287h199l-312 -1352h-227l250 1081l-356 -196z" />
<glyph unicode="2" d="M133 0l45 186l457 392q197 168 279.5 262.5t82.5 177.5q0 89 -51 125.5t-174 36.5q-64 0 -150 -9t-140 -19l-54 -9l29 168q23 7 61 18t138.5 29t179.5 18q201 0 298 -74t97 -233q0 -86 -24.5 -159.5t-77 -140t-110 -120t-147.5 -123.5l-426 -329h603l-48 -197h-868z" />
<glyph unicode="3" d="M131 49l49 160q230 -35 377 -35q134 0 225.5 72t91.5 196q0 73 -46.5 110t-155.5 38l-262 2l43 172l264 10q93 2 182.5 78t89.5 176q0 76 -49.5 114t-155.5 38q-76 0 -167 -8t-144 -16l-53 -9l22 153q21 8 58 20.5t140.5 33t193.5 20.5q201 0 295 -69t94 -215 q0 -141 -62.5 -227t-197.5 -148q77 -40 110 -97t33 -165q0 -215 -157.5 -345.5t-409.5 -130.5q-89 0 -191 18t-160 36z" />
<glyph unicode="4" d="M150 240l38 168l600 944h248l-604 -922h361l92 397h225l-92 -397h141l-45 -190h-139l-57 -248h-226l58 248h-600z" />
<glyph unicode="5" d="M135 57l51 176q234 -59 392 -59q139 0 235 93.5t96 224.5q0 84 -45.5 123.5t-144.5 39.5q-54 0 -119 -15.5t-103 -30.5l-38 -15l-168 37l221 723h791l-46 -197h-608l-133 -379q18 8 48 20.5t103 33t121 20.5q355 0 355 -315q0 -159 -72 -287.5t-197.5 -200.5t-279.5 -72 q-100 0 -215 20t-179 40z" />
<glyph unicode="6" d="M215 451q0 100 21.5 205t62.5 208.5t106 195.5t145.5 162t188 111t226.5 41q69 0 154 -11t135 -21l51 -11l-70 -184q-162 33 -324 33q-280 0 -411 -398q20 9 52.5 22t116 34.5t146.5 21.5q367 0 367 -344q0 -242 -145 -390.5t-406 -148.5q-197 0 -306.5 119t-109.5 355z M449 444q0 -75 18.5 -133.5t63.5 -97.5t112 -39q149 0 227 83.5t78 231.5q0 93 -49.5 134t-150.5 41q-65 0 -135.5 -16t-108.5 -32l-37 -16q-18 -79 -18 -156z" />
<glyph unicode="7" d="M266 31l742 1044l16 80h-604l45 197h831l-69 -303l-754 -1082z" />
<glyph unicode="8" d="M133 297q0 71 27.5 136t74 115t94 86.5t101.5 65.5q-72 58 -92.5 103.5t-20.5 111.5q0 86 37.5 167t108 147.5t185 106.5t255.5 40q197 0 300.5 -76t103.5 -196q0 -143 -69 -240.5t-202 -163.5q80 -47 109 -110t29 -144q0 -88 -42 -171.5t-119 -151.5t-197.5 -109 t-264.5 -41q-212 0 -315 80t-103 244zM381 338q0 -87 53 -127.5t170 -40.5q77 0 141.5 25t104.5 64t62 84t22 89q0 66 -29.5 100.5t-103.5 59.5h-191q-98 -32 -163.5 -95.5t-65.5 -158.5zM551 938q0 -56 22 -89.5t84 -66.5h191q82 35 148.5 99.5t66.5 138.5q0 160 -211 160 q-138 0 -219.5 -73.5t-81.5 -168.5z" />
<glyph unicode="9" d="M162 23l69 196q133 -33 293 -33q154 0 269.5 98.5t160.5 276.5q-221 -63 -336 -63q-183 0 -269 90.5t-73 285.5q5 72 30.5 142.5t75 135.5t116.5 114t162 78.5t204 29.5q204 0 291.5 -147.5t65.5 -417.5q-12 -204 -77 -365.5t-167 -262t-230.5 -152.5t-273.5 -52 q-68 0 -145.5 11.5t-121.5 23.5zM500 893q-12 -105 33.5 -148t154.5 -43q54 0 132 11.5t130 22.5l51 12q25 124 18.5 217t-59 147.5t-147.5 54.5q-121 0 -212 -75t-101 -199z" />
<glyph unicode=":" horiz-adv-x="333" d="M53 0l62 276h225l-61 -276h-226zM203 637l61 276h225l-61 -276h-225z" />
<glyph unicode=";" horiz-adv-x="380" d="M-63 -266h182l284 542h-243zM238 637l61 276h225l-61 -276h-225z" />
<glyph unicode="&#x3c;" d="M227 422v184l840 393v-227l-604 -254l604 -266v-229z" />
<glyph unicode="=" d="M244 211v201h897v-201h-897zM244 616v201h897v-201h-897z" />
<glyph unicode="&#x3e;" d="M313 23v229l605 266l-605 254v227l840 -393v-184z" />
<glyph unicode="?" horiz-adv-x="868" d="M264 0l68 299h225l-68 -299h-225zM348 1196l23 176q182 53 323 53q359 0 359 -297q0 -75 -15 -129.5t-57.5 -109t-96.5 -101t-153 -118.5q-123 -92 -139 -172l-19 -82h-208q0 85 14 159q20 110 199 242q138 102 188.5 160t50.5 131q0 69 -43.5 94t-130.5 25 q-60 0 -133.5 -7.5t-117.5 -15.5z" />
<glyph unicode="@" horiz-adv-x="1941" d="M167.5 311.5q2.5 115.5 31.5 237.5q61 254 157 432.5t234 289.5t312.5 161.5t402.5 50.5q146 0 264 -24t201.5 -67t143 -105.5t91.5 -136.5t43 -163t2.5 -183t-35.5 -198q-60 -239 -131.5 -376t-159.5 -193.5t-215 -56.5q-173 0 -219 100q-72 -36 -187.5 -69.5 t-199.5 -33.5q-68 0 -120 21.5t-82 60t-48.5 86.5t-22 105.5t0 111.5t14.5 111q112 574 518 574q106 0 457 -60q-31 -128 -91.5 -398t-64.5 -323q-3 -43 21 -59.5t74 -16.5q52 0 91.5 36.5t80 134t81.5 268.5q21 84 30.5 152.5t6.5 138.5t-23 124t-62.5 102.5t-107.5 80 t-162.5 49.5t-223.5 18q-362 0 -566.5 -183t-295.5 -562q-30 -127 -32.5 -237.5t30 -211.5t101 -172.5t189.5 -114t287 -42.5q35 0 105 4.5t123 8.5l53 5l-41 -188q-199 -19 -291 -19q-164 0 -296 38.5t-220 106.5t-146 159t-81.5 200.5t-21 225zM851.5 321.5 q-0.5 -66.5 27 -109t79.5 -44.5q123 0 285 90q8 91 121 569q-127 31 -205 31q-60 0 -108 -29t-82.5 -84t-58 -121t-42.5 -153q-16 -83 -16.5 -149.5z" />
<glyph unicode="A" horiz-adv-x="1130" d="M37 0l661 1403h408l-12 -1403h-228v293h-458l-142 -293h-229zM496 494h376l11 710h-52z" />
<glyph unicode="B" horiz-adv-x="1177" d="M143 0l324 1403h473q354 0 354 -291q0 -140 -64 -232.5t-181 -156.5q83 -41 116 -97.5t33 -144.5q0 -212 -141 -346.5t-404 -134.5h-510zM418 197h280q123 0 194 76t71 202q0 75 -44.5 107t-132.5 32h-272zM557 807h256q107 0 177.5 74t70.5 188q0 72 -38 104.5 t-120 32.5h-252z" />
<glyph unicode="C" horiz-adv-x="1019" d="M215 381q0 136 24 275.5t79.5 279t135.5 247t203.5 175t272.5 67.5q74 0 160.5 -13.5t135.5 -27.5l50 -14l-53 -172q-139 29 -303 29q-88 0 -165 -48.5t-131.5 -130.5t-94 -189t-59 -225t-19.5 -237q0 -110 48.5 -165.5t153.5 -55.5q72 0 155 8t130 16l47 7l-16 -180 q-186 -50 -344 -50q-206 0 -308 103t-102 301z" />
<glyph unicode="D" horiz-adv-x="1241" d="M143 0l326 1403h444q430 0 430 -422q0 -139 -25.5 -275.5t-82 -264.5t-136.5 -225.5t-198.5 -156.5t-259.5 -59h-498zM420 199h244q75 0 141 37.5t113.5 101t84.5 143.5t59.5 169t34 172.5t11.5 158.5q0 120 -59 171.5t-181 51.5h-219z" />
<glyph unicode="E" horiz-adv-x="1024" d="M143 0l324 1403h805l-47 -199h-576l-90 -397h463l-47 -201h-461l-94 -407h577l-47 -199h-807z" />
<glyph unicode="F" horiz-adv-x="980" d="M143 0l326 1403h788l-47 -199h-561l-108 -481h471l-49 -199h-469l-121 -524h-230z" />
<glyph unicode="G" horiz-adv-x="1167" d="M219 399q0 130 19.5 254t58 239.5t100 212t141.5 168.5t187 112t231 40q96 0 200.5 -18.5t161.5 -36.5l56 -18l-53 -166q-205 41 -387 41q-98 0 -180.5 -53.5t-136.5 -139t-91.5 -196t-54 -222t-16.5 -219.5q0 -221 237 -221q40 0 85 5t70 11l25 5l86 370h-165l45 191 h393l-170 -727q-17 -6 -49.5 -15t-135.5 -24t-210 -15q-447 0 -447 422z" />
<glyph unicode="H" horiz-adv-x="1273" d="M143 0l326 1403h227l-135 -590h526l138 590h227l-324 -1403h-227l139 614h-526l-141 -614h-230z" />
<glyph unicode="I" horiz-adv-x="516" d="M143 0l326 1403h227l-323 -1403h-230z" />
<glyph unicode="J" horiz-adv-x="563" d="M12 -143l39 200q55 1 84 6.5t53.5 28.5t38.5 61.5t31 112.5l264 1137h228l-265 -1141q-22 -95 -39 -153.5t-44 -108t-55.5 -74t-79 -42.5t-108 -22.5t-147.5 -4.5z" />
<glyph unicode="K" horiz-adv-x="1089" d="M143 0l326 1403h227l-145 -625l156 13l421 612h252l-491 -705l172 -698h-240l-139 590l-176 -12l-133 -578h-230z" />
<glyph unicode="L" horiz-adv-x="874" d="M143 0l326 1403h227l-276 -1204h489l-45 -199h-721z" />
<glyph unicode="M" horiz-adv-x="1607" d="M143 0l326 1403h362l41 -1094l547 1094h369l-324 -1403h-229l281 1204h-17l-571 -1147h-221l-43 1147h-15l-276 -1204h-230z" />
<glyph unicode="N" horiz-adv-x="1314" d="M143 0l326 1403h375l135 -1163h31l264 1163h221l-324 -1403h-358l-147 1178h-31l-275 -1178h-217z" />
<glyph unicode="O" horiz-adv-x="1269" d="M217 401q0 265 83.5 505.5t240.5 377.5q156 141 385 141q446 0 446 -424q0 -279 -85.5 -524.5t-250.5 -378.5q-75 -58 -174 -89.5t-207 -31.5q-217 0 -327.5 102t-110.5 322zM453 422q0 -133 53 -189.5t184 -56.5q116 0 201 76q115 103 180.5 313t65.5 416q0 132 -54 189 t-182 57q-113 0 -190 -68q-119 -108 -188.5 -326.5t-69.5 -410.5z" />
<glyph unicode="P" horiz-adv-x="1120" d="M143 0l326 1403h420q208 0 301.5 -88.5t93.5 -280.5q0 -284 -153.5 -442t-425.5 -158h-232l-100 -434h-230zM518 633h219q149 0 231.5 108.5t82.5 290.5q0 88 -42.5 130t-138.5 42h-221z" />
<glyph unicode="Q" horiz-adv-x="1269" d="M217 401q0 265 83.5 505.5t240.5 377.5q156 141 385 141q446 0 446 -424q0 -279 -85.5 -524.5t-250.5 -378.5q-36 -29 -82 -51l99 -283l-215 -71l-90 291q-54 -7 -93 -7q-217 0 -327.5 102t-110.5 322zM453 422q0 -133 53 -189.5t184 -56.5q116 0 201 76 q115 103 180.5 313t65.5 416q0 132 -54 189t-182 57q-113 0 -190 -68q-119 -108 -188.5 -326.5t-69.5 -410.5z" />
<glyph unicode="R" horiz-adv-x="1148" d="M143 0l326 1403h416q205 0 303 -88t98 -285q0 -105 -28 -195t-76.5 -152.5t-106 -105.5t-123.5 -65l131 -512h-227l-115 481h-258l-110 -481h-230zM528 678h236q131 0 209 98.5t78 243.5q0 101 -41.5 143.5t-141.5 42.5h-217z" />
<glyph unicode="S" horiz-adv-x="1017" d="M109 49l36 166q236 -39 383 -39q285 0 285 260q0 71 -39.5 105.5t-177.5 91.5q-103 42 -161 82.5t-90 103.5t-32 154q0 203 131.5 327.5t352.5 124.5q92 0 193.5 -16.5t157.5 -33.5l56 -17l-41 -164q-221 37 -364 37q-119 0 -186.5 -62t-67.5 -172q0 -68 40 -102t177 -88 q168 -70 226.5 -139.5t58.5 -204.5q0 -231 -141 -358.5t-380 -127.5q-92 0 -196 18t-162 36z" />
<glyph unicode="T" horiz-adv-x="944" d="M297 1204l47 199h905l-47 -199h-340l-278 -1204h-228l277 1204h-336z" />
<glyph unicode="U" horiz-adv-x="1216" d="M219 285q0 82 25 209l211 909h229l-219 -942q-19 -85 -19 -142q0 -79 52.5 -111t156.5 -32q141 0 206.5 65.5t99.5 213.5l219 948h229l-219 -948q-58 -250 -187.5 -364t-367.5 -114q-195 0 -305.5 76.5t-110.5 231.5z" />
<glyph unicode="V" horiz-adv-x="1128" d="M350 0l8 1403h228l-25 -1204h78l545 1204h229l-649 -1403h-414z" />
<glyph unicode="W" horiz-adv-x="1738" d="M307 0l60 1403h229l-78 -1192h41l502 1171h250l-56 -1171h39l494 1192h227l-602 -1403h-350l55 1079l-450 -1079h-361z" />
<glyph unicode="X" horiz-adv-x="1058" d="M12 0l545 707l-203 696h242l135 -533l389 533h244l-537 -701l209 -702h-237l-146 537l-397 -537h-244z" />
<glyph unicode="Y" horiz-adv-x="1021" d="M334 1403h231l127 -594l402 594h241l-583 -807l-142 -596h-213l142 610z" />
<glyph unicode="Z" horiz-adv-x="1007" d="M76 0l55 248l805 905l12 51h-594l47 199h854l-57 -252l-809 -901l-12 -51h600l-47 -199h-854z" />
<glyph unicode="[" horiz-adv-x="530" d="M4 -250l416 1780h438l-45 -191h-209l-325 -1398h206l-47 -191h-434z" />
<glyph unicode="\" horiz-adv-x="940" d="M383 1430l233 8l269 -1430l-232 -8z" />
<glyph unicode="]" horiz-adv-x="528" d="M-33 -250l45 191h209l326 1398h-207l47 191h434l-415 -1780h-439z" />
<glyph unicode="^" d="M168 647l389 705h193l393 -705h-234l-254 488l-254 -488h-233z" />
<glyph unicode="_" horiz-adv-x="1067" d="M-10 -373l47 209h917l-47 -209h-917z" />
<glyph unicode="`" horiz-adv-x="1060" d="M532 1374l107 180l420 -188l-94 -162z" />
<glyph unicode="a" horiz-adv-x="1056" d="M172 319q0 92 19 189.5t60.5 194.5t100 173t146.5 123.5t192 47.5q63 0 180.5 -15t203.5 -30l87 -15l-153 -663q-13 -57 -27 -137t-21 -131l-8 -52l-219 -8q23 147 31 186q-6 -8 -17 -22t-45.5 -49.5t-69.5 -62.5t-85.5 -49t-97.5 -22q-142 0 -209.5 91.5t-67.5 250.5z M397 319q0 -76 28 -113.5t97 -37.5q29 0 68.5 22.5t75.5 55t67.5 64.5t50.5 54l19 23l104 440q-139 31 -211 31q-71 0 -130 -53t-94.5 -135.5t-55 -174t-19.5 -176.5z" />
<glyph unicode="b" horiz-adv-x="1054" d="M129 39l324 1411h223l-123 -530q5 5 15 13.5t41 30.5t61.5 39t73.5 30.5t81 13.5q67 0 119 -18t84.5 -47.5t53 -72t28.5 -88t8 -98.5q0 -110 -21 -216t-64.5 -201.5t-105 -168t-148.5 -115t-189 -42.5q-88 0 -203 15t-187 29zM385 190q113 -22 203 -22q64 0 117.5 41 t87 102t56.5 135.5t32.5 139t9.5 114.5q0 72 -27 114t-104 42q-30 0 -66.5 -13.5t-68 -33t-59 -39.5t-42.5 -34l-16 -13z" />
<glyph unicode="c" horiz-adv-x="833" d="M176 313q0 120 21 228t64.5 201t106.5 160.5t151.5 106t193.5 38.5q59 0 130 -13.5t113 -27.5l41 -13l-57 -164q-147 25 -235 25q-75 0 -135 -44t-95 -116t-53.5 -158t-18.5 -176q0 -95 42.5 -142.5t136.5 -47.5q38 0 94 6t92 12l37 5l-17 -168q-145 -48 -284 -48 q-154 0 -241 88t-87 248z" />
<glyph unicode="d" horiz-adv-x="1056" d="M172 313q0 102 21 205t64 197.5t102.5 168t144.5 117t182 43.5q44 0 108.5 -9.5t107.5 -18.5l42 -10l103 444h223l-336 -1450h-215l26 139q-5 -7 -15 -17.5t-41.5 -38.5t-64 -49.5t-80.5 -39t-93 -17.5q-137 0 -208 86t-71 250zM397 313q0 -69 31 -108t94 -39 q29 0 67.5 19.5t73 47t65.5 55t49 46.5l18 20l108 473q-125 29 -217 29q-66 0 -123 -54t-92 -136.5t-54.5 -175.5t-19.5 -177z" />
<glyph unicode="e" horiz-adv-x="962" d="M174 309q0 111 20 215.5t63.5 199.5t107 165.5t158 112.5t208.5 42q336 0 336 -280q0 -189 -134 -262.5t-437 -73.5h-86q-13 -50 -13 -111q0 -72 47.5 -110.5t122.5 -38.5q64 0 148.5 9t136.5 17l53 9l-22 -168q-21 -6 -57.5 -16t-136 -26t-183.5 -16q-166 0 -249 81.5 t-83 250.5zM436 596h96q171 0 243.5 37t72.5 129q0 55 -32 78.5t-95 23.5q-213 0 -285 -268z" />
<glyph unicode="f" horiz-adv-x="655" d="M59 -442l297 1273h-102l45 193h100l15 61q48 212 127 300t235 88q38 0 84.5 -9.5t73.5 -19.5l27 -10l-41 -166q-77 14 -140 14q-59 0 -88.5 -47.5t-56.5 -151.5l-14 -59h241l-47 -190h-235l-195 -834l-127 -442h-199z" />
<glyph unicode="g" horiz-adv-x="976" d="M27 -201q0 53 22.5 99.5t64.5 83t80.5 60.5t90.5 50q-37 37 -37 101q0 40 30 89t60 78l29 29q-70 37 -106 97t-36 155q0 109 49.5 200.5t146.5 148.5t224 57q45 0 101.5 -8.5t89.5 -17.5l34 -9l301 12l-43 -182h-145q18 -49 18 -121q0 -74 -30.5 -144t-84.5 -124.5 t-136 -87.5t-179 -33q-18 0 -37.5 2.5t-29.5 5.5l-10 2q-45 -59 -45 -100q0 -29 39 -42.5t151 -29.5q68 -9 118.5 -25t93.5 -44t65 -74t22 -109q0 -172 -135.5 -282.5t-366.5 -110.5q-192 0 -300.5 68t-108.5 206zM231 -150q0 -62 50.5 -100.5t154.5 -38.5q76 0 139.5 17 t107.5 60t44 106q0 49 -37 69t-129 33q-126 19 -176 31q-58 -29 -106 -78.5t-48 -98.5zM432 651q0 -137 156 -137q95 0 152 65t57 146q0 69 -39 104t-123 35q-91 0 -147 -65t-56 -148z" />
<glyph unicode="h" horiz-adv-x="1038" d="M123 0l334 1450h221l-127 -559q6 6 16 16.5t42 37.5t64 47.5t78 37.5t89 17q126 0 185.5 -75t59.5 -200q0 -81 -43 -264l-116 -508h-221l114 494q37 151 37 227q0 67 -23 100t-83 33q-26 0 -61.5 -17.5t-67 -42.5t-59 -50t-44.5 -42l-16 -18l-158 -684h-221z" />
<glyph unicode="i" horiz-adv-x="464" d="M123 0l235 1024h222l-236 -1024h-221zM391 1176l55 239h226l-56 -239h-225z" />
<glyph unicode="j" horiz-adv-x="464" d="M-160 -297q63 32 97.5 50.5t68 41.5t48 38.5t29.5 43t22.5 53t17.5 70.5l235 1024h222l-236 -1024q-14 -62 -23.5 -98.5t-25 -77t-28 -63t-38 -51t-49 -45.5t-67 -42.5t-87.5 -46t-114 -51.5zM389 1165l55 238h224l-54 -238h-225z" />
<glyph unicode="k" horiz-adv-x="937" d="M123 0l334 1450h221l-191 -823l97 10l309 385h248l-391 -483l161 -539h-229l-131 453l-105 -9l-102 -444h-221z" />
<glyph unicode="l" horiz-adv-x="473" d="M125 0l336 1450h221l-334 -1450h-223z" />
<glyph unicode="m" horiz-adv-x="1587" d="M123 0l235 1024h213l-22 -133q5 6 15 16.5t42 37.5t65 47.5t81 37.5t94 17q52 0 93.5 -16.5t63.5 -40.5t36.5 -48t18.5 -40l5 -17q7 7 19 17.5t49 38.5t74 49.5t88.5 39t97.5 17.5q125 0 184 -75t59 -200q0 -75 -39 -264l-116 -508h-224l119 494q37 176 37 221 q0 139 -102 139q-44 0 -103 -37t-96 -73l-37 -37q-10 -111 -33 -199l-116 -508h-222l115 494q37 176 37 227q0 66 -25 99.5t-84 33.5q-42 0 -102.5 -42.5t-100.5 -85.5l-40 -42l-158 -684h-221z" />
<glyph unicode="n" horiz-adv-x="1036" d="M123 0l235 1024h213l-22 -135q6 6 16 17t42 38t64.5 48t79 38t89.5 17q126 0 185.5 -75t59.5 -200q0 -85 -43 -262l-116 -510h-221l114 494q37 176 37 227q0 68 -23.5 100.5t-84.5 32.5q-27 0 -62 -17.5t-66 -42.5t-58.5 -50t-43.5 -42l-16 -18l-158 -684h-221z" />
<glyph unicode="o" horiz-adv-x="1013" d="M174 342q0 103 23 205t68 191t106 157.5t144 108.5t175 40q383 0 383 -368q0 -130 -34.5 -253.5t-98 -223.5t-164.5 -161t-223 -61q-187 0 -283 88t-96 277zM395 340q0 -84 40.5 -129t117.5 -45q89 0 159 76t105 191.5t35 244.5q0 84 -41 131t-121 47q-87 0 -156 -77 t-104 -194t-35 -245z" />
<glyph unicode="p" horiz-adv-x="1054" d="M20 -440l338 1464h217l-28 -139q6 7 16 17.5t42 38.5t64.5 49.5t78.5 39t88 17.5q144 0 214 -87.5t70 -240.5q0 -104 -21 -208t-64 -200t-102.5 -169.5t-144.5 -117.5t-182 -44q-48 0 -113 9.5t-106 18.5l-41 10l-106 -458h-220zM389 199q125 -31 217 -31q67 0 124 54.5 t91.5 137.5t54 174.5t19.5 172.5q0 70 -31.5 109.5t-95.5 39.5q-27 0 -65.5 -19t-73 -46.5t-65.5 -55t-50 -46.5l-18 -19z" />
<glyph unicode="q" horiz-adv-x="1052" d="M172 309q0 105 21 209.5t64.5 199t103.5 167.5t144.5 116t180.5 43q73 0 191 -15t200 -29l82 -15l-325 -1421h-222l133 577q-5 -7 -15 -18t-41.5 -39t-64 -50t-79.5 -39.5t-92 -17.5q-138 0 -209.5 87t-71.5 245zM397 317q0 -149 125 -149q44 0 112.5 46.5t114.5 93.5 l46 46l108 473q-125 29 -219 29q-84 0 -152 -89t-101.5 -211t-33.5 -239z" />
<glyph unicode="r" horiz-adv-x="667" d="M123 0l235 1024h220l-35 -150q7 6 20 16t52.5 36.5t78 48.5t92 43t99.5 29l-64 -230q-50 -15 -129.5 -48t-133.5 -59l-54 -26l-160 -684h-221z" />
<glyph unicode="s" horiz-adv-x="882" d="M98 37l41 166q195 -37 326 -37q98 0 150.5 39t52.5 110q0 39 -33.5 58t-124.5 43q-143 37 -211 89t-68 152q0 178 121 282.5t297 104.5q86 0 174.5 -13t134.5 -27l46 -13l-41 -166q-203 31 -336 31q-80 0 -126 -41t-46 -102q0 -40 32.5 -61t130.5 -50q51 -15 82 -25.5 t66.5 -25.5t55.5 -31.5t38 -40t25.5 -53t7.5 -68.5q0 -186 -125 -283.5t-328 -97.5q-81 0 -166.5 15t-130.5 30z" />
<glyph unicode="t" horiz-adv-x="663" d="M215 186q0 79 31 211l102 437h-119l50 190h116l64 281h223l-66 -281h246l-47 -190h-244l-106 -455q-21 -90 -21 -137q0 -76 80 -76q24 0 61 3t62 6l25 3l-19 -162q-106 -39 -215 -39q-106 0 -164.5 57.5t-58.5 151.5z" />
<glyph unicode="u" horiz-adv-x="1036" d="M188 252q0 69 41 262l117 510h221l-112 -494q-37 -151 -37 -227q0 -66 24 -99.5t82 -33.5q27 0 62.5 17.5t66.5 42.5t59 50t44 42l16 18l158 684h221l-236 -1024h-213l23 135q-6 -6 -16 -17t-42.5 -38t-65 -48t-78.5 -38t-89 -17q-126 0 -186 75t-60 200z" />
<glyph unicode="v" horiz-adv-x="940" d="M268 1024h219l-10 -840h49l392 840h225l-498 -1024h-369z" />
<glyph unicode="w" horiz-adv-x="1531" d="M244 0l41 1024h223l-45 -834h43l366 814h254l-18 -814h43l346 834h225l-438 -1024h-377l19 709l-312 -709h-370z" />
<glyph unicode="x" horiz-adv-x="870" d="M23 0l411 512l-170 512h228l104 -352l260 352h227l-413 -528l172 -496h-228l-102 342l-256 -342h-233z" />
<glyph unicode="y" horiz-adv-x="942" d="M211 -440l221 440h-156l-8 1024h219l-10 -840h45l396 840h225l-709 -1464h-223z" />
<glyph unicode="z" horiz-adv-x="851" d="M74 0l39 186l594 648h-443l47 190h705l-45 -184l-596 -650h450l-49 -190h-702z" />
<glyph unicode="{" horiz-adv-x="612" d="M147 571l39 164q67 17 109.5 36t67.5 45t36.5 52t22.5 70q7 31 30.5 157.5t26.5 135.5q52 168 157 238.5t304 78.5l-37 -192q-103 -7 -154 -53.5t-71 -133.5l-47 -251q-29 -122 -83 -181.5t-163 -97.5q65 -33 96 -75t31 -113q0 -38 -47 -200.5t-47 -207.5 q0 -117 145 -117l-53 -192q-148 2 -229.5 65.5t-81.5 180.5q0 51 45 216.5t45 204.5q0 55 -33 95t-109 75z" />
<glyph unicode="|" horiz-adv-x="665" d="M338 -440v1890h221v-1890h-221z" />
<glyph unicode="}" horiz-adv-x="610" d="M-35 -272l37 192q104 7 154.5 53t70.5 133l47 252q29 122 83 181.5t163 97.5q-65 33 -96 75t-31 113q0 38 47 200.5t47 207.5q0 117 -145 117l53 192q148 -2 230 -65.5t82 -180.5q0 -51 -45.5 -217t-45.5 -205q0 -54 33 -94t109 -75l-39 -164q-67 -17 -109.5 -36 t-67.5 -45t-36.5 -52t-22.5 -70q-7 -31 -30.5 -157.5t-26.5 -135.5q-52 -168 -157 -238.5t-304 -78.5z" />
<glyph unicode="~" d="M252 569q5 4 14.5 11.5t38 26t56.5 32.5t66 25.5t71 11.5q59 0 212 -52.5t199 -52.5q36 0 88 21t87 42l34 21l19 -178q-5 -4 -13 -11.5t-34 -25.5t-52 -32t-63 -25.5t-70 -11.5q-59 0 -217.5 52t-195.5 52q-41 0 -96 -21.5t-90 -43.5l-34 -21z" />
<glyph unicode="&#xa1;" horiz-adv-x="344" d="M-39 -410l232 930h206l-204 -930h-234zM231 748l64 276h225l-63 -276h-226z" />
<glyph unicode="&#xa2;" d="M308.5 384.5q3.5 60.5 19.5 125.5q53 212 171 323.5t283 120.5l52 224h180l-56 -228l162 -20l-55 -189q-155 11 -229 11q-126 0 -194 -58t-99 -184q-18 -75 -13.5 -128t52.5 -81.5t145 -28.5q35 0 94 3t101 5l41 3l-37 -189q-94 -12 -174 -16l-54 -236h-178l49 224 q-75 3 -129 30.5t-82.5 70.5t-40.5 100t-8.5 117.5z" />
<glyph unicode="&#xa3;" d="M158 0l43 190h196l115 506h-160l45 191h158l23 88q28 113 58.5 186.5t76.5 127.5t110.5 78t155.5 24q46 0 117.5 -10.5t119.5 -21.5l48 -11l-52 -170q-135 16 -225 16q-27 0 -49 -6.5t-37.5 -15.5t-30 -29t-23 -36t-19 -47t-16 -51.5t-15.5 -60.5l-15 -61h355l-45 -191 h-353l-116 -506h229l145 35l-4 -190l-155 -35h-680z" />
<glyph unicode="&#xa4;" d="M207 182l145 146q-47 88 -47 188t47 186l-145 148l153 154l146 -148q88 47 187.5 47t187.5 -47l145 148l154 -154l-148 -148q47 -86 47 -186t-47 -188l148 -146l-154 -153l-145 147q-88 -50 -187.5 -50t-187.5 50l-146 -147zM509 516q0 -77 54 -131t130 -54t130 54 t54 131t-54 131t-130 54t-130 -54t-54 -131z" />
<glyph unicode="&#xa5;" d="M213 287l47 196h322l20 86l-8 27h-307l43 195h192l-225 561h246l213 -516l411 516h295l-461 -561h191l-45 -195h-295l-23 -29l-20 -84h313l-45 -196h-313l-68 -287h-227l70 287h-326z" />
<glyph unicode="&#xa6;" horiz-adv-x="669" d="M340 336h223v-776h-223v776zM340 686v764h223v-764h-223z" />
<glyph unicode="&#xa7;" horiz-adv-x="983" d="M49 -309l64 186q203 -29 307 -29q111 0 179.5 51.5t68.5 120.5q0 54 -34 74.5t-157 53.5q-29 8 -45 12q-136 36 -193 95t-57 153q0 59 21 116.5t54.5 100t60.5 69t53 45.5q-41 41 -41 162q0 53 18.5 109.5t59.5 111.5t97.5 98t140.5 70t181 27q57 0 136.5 -10.5 t130.5 -21.5l51 -11l-51 -189q-209 31 -301 31q-118 0 -182 -46.5t-64 -127.5q0 -31 15.5 -52.5t45.5 -35.5t63 -23t80 -19q16 -3 25 -5q59 -13 104 -35t71.5 -46t43 -54t22 -56.5t5.5 -54.5q0 -147 -170 -336q35 -53 35 -119q0 -29 -4.5 -63t-18.5 -79.5t-36 -87.5t-61 -84 t-89 -72.5t-125 -50t-164 -19.5q-58 0 -143 10t-141 20zM410 465q0 -41 29.5 -61.5t101.5 -38.5q105 -31 166 -58q21 21 53.5 89t32.5 114q0 42 -35 67t-119 44q-117 24 -141 41q-22 -25 -55 -87t-33 -110z" />
<glyph unicode="&#xa8;" horiz-adv-x="1200" d="M465 1247l55 240h182l-55 -240h-182zM852 1247l53 240h185l-58 -240h-180z" />
<glyph unicode="&#xa9;" horiz-adv-x="1314" d="M309 889q0 162 71 292.5t198 204.5t286 74q162 0 289.5 -78t195.5 -207.5t68 -285.5q0 -161 -68.5 -290.5t-196.5 -205.5t-292 -76q-235 0 -393 165t-158 407zM420 889q0 -193 126 -328t314 -135q191 0 318 134.5t127 328.5q0 193 -127.5 329t-315.5 136t-315 -136 t-127 -329zM623 895q0 175 59.5 249.5t198.5 74.5q42 0 82 -6.5t59 -13.5l20 -7l-12 -148q-73 15 -139 15q-56 0 -75 -36t-19 -128q0 -94 20.5 -135t73.5 -41q28 0 62.5 3t55.5 6l21 3l12 -141q-66 -33 -168 -33q-137 0 -194 75t-57 263z" />
<glyph unicode="&#xaa;" horiz-adv-x="686" d="M240 891q22 95 85 140.5t187 51.5l152 9l12 47q6 28 -13 40.5t-65 12.5q-38 0 -102.5 -3.5t-109.5 -6.5l-46 -4l22 129q156 43 283 43q138 0 195 -48.5t28 -173.5l-65 -286q13 -19 41 -23l-35 -139q-79 0 -122.5 8t-58 19t-26.5 34q-13 -7 -34.5 -16.5t-78 -26 t-100.5 -16.5q-94 0 -133.5 56.5t-15.5 152.5zM428 895q-6 -33 7.5 -48.5t47.5 -15.5q24 0 56 8.5t53 16.5l20 8l25 107l-119 -8q-76 -6 -90 -68z" />
<glyph unicode="&#xab;" horiz-adv-x="954" d="M133 451l39 102l479 315l-63 -219l-248 -153l172 -174l-55 -201zM592 451l39 102l479 315l-63 -219l-248 -153l172 -174l-56 -201z" />
<glyph unicode="&#xac;" d="M240 520v199h886v-494h-200v295h-686z" />
<glyph unicode="&#xad;" horiz-adv-x="608" d="M147 444l52 201h512l-49 -201h-515z" />
<glyph unicode="&#xae;" horiz-adv-x="1314" d="M309 889q0 246 157 408.5t396 162.5q122 0 227 -45.5t176.5 -123t111.5 -182t40 -220.5q0 -161 -68.5 -290.5t-196 -205.5t-290.5 -76q-156 0 -283 75.5t-198.5 206.5t-71.5 290zM420 889q0 -192 128 -327.5t314 -135.5q190 0 316.5 134.5t126.5 328.5q0 193 -127.5 329 t-315.5 136q-187 0 -314.5 -136.5t-127.5 -328.5zM625 571v633h256q233 0 233 -205q0 -78 -19.5 -122t-68.5 -76l96 -230h-172l-76 203h-86v-203h-163zM786 897h86q41 0 62.5 23.5t21.5 66.5q0 92 -96 92h-74v-182z" />
<glyph unicode="&#xaf;" horiz-adv-x="925" d="M455 1294l41 181h604l-43 -181h-602z" />
<glyph unicode="&#xb0;" d="M532 1126q0 133 84 216t218 83q132 0 215.5 -83t83.5 -216t-83 -215t-216 -82q-134 0 -218 82t-84 215zM666 1126q0 -76 46 -123t122 -47q75 0 123.5 47.5t48.5 122.5t-48.5 123.5t-123.5 48.5q-76 0 -122 -48t-46 -124z" />
<glyph unicode="&#xb1;" d="M207 55v201h932v-201h-932zM207 573v201h362v236h201v-236h369v-201h-369v-229h-201v229h-362z" />
<glyph unicode="&#xb2;" horiz-adv-x="573" d="M281 979l36 154l199 145q64 44 95 76t38 63q7 27 -12 38t-62 11q-23 0 -64.5 -3.5t-72.5 -6.5l-30 -4l34 166q144 20 234 20q118 0 156 -45.5t12 -150.5q-17 -67 -56.5 -115.5t-115.5 -99.5l-121 -86h221l-39 -162h-452z" />
<glyph unicode="&#xb3;" horiz-adv-x="573" d="M270 975l52 158q118 -13 194 -13q77 0 92 56q7 29 -8 41t-51 12h-135l37 147h131q25 0 45 15t26 39q6 26 -8.5 36.5t-50.5 10.5t-81.5 -3.5t-72.5 -6.5l-28 -3l28 156q136 18 222 18q118 0 165 -42.5t25 -133.5q-13 -56 -44.5 -93.5t-62.5 -53.5q38 -16 49.5 -48.5 t-3.5 -105.5q-26 -102 -99.5 -152.5t-183.5 -50.5q-44 0 -103.5 4t-96.5 8z" />
<glyph unicode="&#xb4;" horiz-adv-x="1132" d="M524 1374l508 189l19 -199l-508 -166z" />
<glyph unicode="&#xb5;" d="M70 -440l206 905l3 10l14 60l12 49l101 440h221l-101 -440l-28 -125q-21 -96 -21 -156q0 -66 24.5 -99.5t82.5 -33.5q43 0 104.5 42.5t101.5 85.5l41 42l158 684h221l-235 -1024h-213l22 135q-6 -6 -16 -17t-42 -38t-64.5 -48t-78.5 -38t-89 -17q-57 0 -103 19l-100 -436 h-221z" />
<glyph unicode="&#xb6;" horiz-adv-x="1148" d="M291 952q0 89 34 175t93.5 154.5t147.5 110.5t188 42h639l-43 -181h-101l-299 -1253h-180l299 1253h-164l-299 -1253h-182l156 649q-150 3 -219.5 88t-69.5 215z" />
<glyph unicode="&#xb7;" horiz-adv-x="325" d="M156 457l67 301h226l-68 -301h-225z" />
<glyph unicode="&#xb8;" horiz-adv-x="1619" d="M616 -434l35 139q68 -4 109 -4q78 0 92 59q8 32 -9.5 43t-56.5 11h-59l45 196h94l-24 -88h12q218 0 176 -176q-47 -199 -246 -199q-38 0 -80 4.5t-65 9.5z" />
<glyph unicode="&#xb9;" horiz-adv-x="573" d="M399 1468l248 150h166l-158 -639h-180l109 440l-133 -78z" />
<glyph unicode="&#xba;" horiz-adv-x="700" d="M254 915q3 52 18 113q42 174 134.5 248t250.5 74q95 0 167 -36.5t85 -109.5q15 -80 -10 -182q-43 -187 -136.5 -264.5t-262.5 -77.5q-120 0 -185.5 62.5t-60.5 172.5zM449 932q0 -46 20.5 -67t69.5 -21q65 0 103 39.5t65 140.5q12 44 12 82q0 45 -23 65.5t-73 20.5 q-64 0 -100.5 -36t-57.5 -124q-16 -62 -16 -100z" />
<glyph unicode="&#xbb;" horiz-adv-x="976" d="M78 121l63 219l248 154l-172 174l55 200l324 -329l-39 -103zM555 121l63 219l248 154l-172 174l56 200l323 -329l-39 -103z" />
<glyph unicode="&#xbc;" horiz-adv-x="1263" d="M215 37l881 1423l207 -74l-879 -1423zM342 1468l248 150h166l-158 -639h-180l108 440l-133 -78zM766 84l37 149l213 406h198l-221 -393h97l67 182h156l-45 -182h35l-39 -162h-37l-21 -84h-178l21 84h-283z" />
<glyph unicode="&#xbd;" horiz-adv-x="1298" d="M215 37l881 1423l207 -74l-879 -1423zM342 1468l248 150h166l-158 -639h-180l108 440l-133 -78zM815 0l37 154l199 145q64 44 95 76t38 63q7 27 -12 38t-62 11q-23 0 -65 -3.5t-73 -7.5l-30 -3l35 166q143 20 233 20q118 0 156 -45.5t12 -150.5q-17 -67 -56.5 -115.5 t-115.5 -99.5l-121 -86h222l-39 -162h-453z" />
<glyph unicode="&#xbe;" horiz-adv-x="1271" d="M225 37l881 1423l207 -74l-879 -1423zM244 975l51 158q118 -13 194 -13q78 0 93 56q7 29 -8.5 41t-51.5 12h-135l37 147h131q25 0 45.5 15t26.5 39q6 26 -9 36.5t-51 10.5t-81.5 -3.5t-73.5 -6.5l-27 -3l29 156q135 18 221 18q118 0 165 -42.5t25 -133.5 q-13 -56 -44.5 -93.5t-61.5 -53.5q38 -16 49 -48.5t-4 -105.5q-26 -102 -99.5 -152.5t-183.5 -50.5q-44 0 -103.5 4t-96.5 8zM776 84l37 149l213 406h199l-221 -393h96l67 182h156l-45 -182h35l-39 -162h-37l-20 -84h-179l21 84h-283z" />
<glyph unicode="&#xbf;" horiz-adv-x="862" d="M51 -104q0 75 15 129.5t57.5 109t96.5 101t153 118.5q123 92 139 172l18 82h209q0 -85 -14 -159q-20 -110 -199 -242q-138 -102 -188.5 -160t-50.5 -131q0 -69 43.5 -94t130.5 -25q60 0 133.5 7.5t117.5 15.5l44 8l-23 -176q-182 -53 -323 -53q-359 0 -359 297zM547 725 l67 299h226l-68 -299h-225z" />
<glyph unicode="&#xc0;" horiz-adv-x="1130" d="M37 0l661 1403h408l-12 -1403h-228v293h-458l-142 -293h-229zM496 494h376l11 710h-52zM657 1733l109 194l422 -188l-101 -172z" />
<glyph unicode="&#xc1;" horiz-adv-x="1130" d="M37 0l661 1403h408l-12 -1403h-228v293h-458l-142 -293h-229zM496 494h376l11 710h-52zM737 1759l508 189l21 -199l-510 -164z" />
<glyph unicode="&#xc2;" horiz-adv-x="1130" d="M37 0l661 1403h408l-12 -1403h-228v293h-458l-142 -293h-229zM496 494h376l11 710h-52zM588 1608l348 299h129l197 -299h-203l-78 135l-158 -135h-235z" />
<glyph unicode="&#xc3;" horiz-adv-x="1130" d="M37 0l661 1403h408l-12 -1403h-228v293h-458l-142 -293h-229zM496 494h376l11 710h-52zM594 1784q6 5 15.5 14t38 31t55 39t60 31t58.5 14q49 0 110.5 -24.5t112.5 -49t72 -24.5t64.5 20.5t76.5 41.5l33 21l4 -155q-5 -5 -14.5 -13.5t-36.5 -30t-52.5 -38t-58.5 -30 t-59 -13.5q-51 0 -158.5 49t-140.5 49q-21 0 -64.5 -22t-76.5 -44l-33 -22z" />
<glyph unicode="&#xc4;" horiz-adv-x="1130" d="M37 0l661 1403h408l-12 -1403h-228v293h-458l-142 -293h-229zM496 494h376l11 710h-52zM659 1636l56 240h184l-57 -240h-183zM1057 1636l55 240h184l-59 -240h-180z" />
<glyph unicode="&#xc5;" horiz-adv-x="1130" d="M37 0l641 1362q-19 56 0 127q28 112 107.5 168.5t191.5 56.5q108 0 162 -55.5t28 -169.5q-18 -73 -61 -125l-12 -1364h-228v293h-458l-142 -293h-229zM496 494h376l11 710h-52zM821 1489q-6 -35 15 -56.5t67 -21.5t78 20.5t41 57.5q8 39 -17.5 59.5t-64.5 20.5 q-45 0 -76.5 -21.5t-42.5 -58.5z" />
<glyph unicode="&#xc6;" horiz-adv-x="1566" d="M39 0l663 1419h1119l-47 -217l-603 4l-94 -397h486l-47 -207h-488l-92 -387h600l-47 -215h-817l69 295h-344l-141 -295h-217zM494 506h299l163 698h-139z" />
<glyph unicode="&#xc7;" horiz-adv-x="1019" d="M215 381q0 136 24 275.5t79.5 279t135.5 247t203.5 175t272.5 67.5q74 0 160.5 -13.5t135.5 -27.5l50 -14l-53 -172q-139 29 -303 29q-88 0 -165 -48.5t-131.5 -130.5t-94 -189t-59 -225t-19.5 -237q0 -110 48.5 -165.5t153.5 -55.5q72 0 155 8t130 16l47 7l-16 -180 q-186 -50 -344 -50h-19l-14 -55h12q218 0 176 -176q-47 -199 -245 -199q-38 0 -80 4.5t-65 9.5l-23 5l34 139q68 -4 109 -4q78 0 92 59q8 32 -9 43t-56 11h-60l39 172q-301 48 -301 395z" />
<glyph unicode="&#xc8;" horiz-adv-x="1024" d="M143 0l324 1403h805l-47 -199h-576l-90 -397h463l-47 -201h-461l-94 -407h577l-47 -199h-807zM608 1733l109 194l422 -188l-101 -172z" />
<glyph unicode="&#xc9;" horiz-adv-x="1024" d="M143 0l324 1403h805l-47 -199h-576l-90 -397h463l-47 -201h-461l-94 -407h577l-47 -199h-807zM721 1759l508 189l20 -199l-510 -164z" />
<glyph unicode="&#xca;" horiz-adv-x="1024" d="M143 0l324 1403h805l-47 -199h-576l-90 -397h463l-47 -201h-461l-94 -407h577l-47 -199h-807zM606 1610l348 299h129l197 -299h-203l-78 135l-157 -135h-236z" />
<glyph unicode="&#xcb;" horiz-adv-x="1024" d="M143 0l324 1403h805l-47 -199h-576l-90 -397h463l-47 -201h-461l-94 -407h577l-47 -199h-807zM627 1636l55 240h184l-57 -240h-182zM1024 1636l55 240h185l-60 -240h-180z" />
<glyph unicode="&#xcc;" horiz-adv-x="516" d="M143 0l326 1403h227l-323 -1403h-230zM299 1733l109 194l421 -188l-100 -172z" />
<glyph unicode="&#xcd;" horiz-adv-x="516" d="M143 0l326 1403h227l-323 -1403h-230zM459 1759l508 189l20 -199l-510 -164z" />
<glyph unicode="&#xce;" horiz-adv-x="516" d="M143 0l326 1403h227l-323 -1403h-230zM281 1610l348 299h129l196 -299h-202l-78 135l-158 -135h-235z" />
<glyph unicode="&#xcf;" horiz-adv-x="516" d="M143 0l326 1403h227l-323 -1403h-230zM336 1655l55 239h184l-57 -239h-182zM733 1655l55 239h185l-60 -239h-180z" />
<glyph unicode="&#xd0;" horiz-adv-x="1253" d="M156 0l137 594h-119l47 225h125l135 584h445q430 0 430 -422q0 -139 -25.5 -275.5t-82 -264.5t-137 -225.5t-199 -156.5t-259.5 -59h-497zM432 199h244q75 0 141 37.5t113.5 101t84.5 143.5t59.5 169t34 172.5t11.5 158.5q0 120 -58.5 171.5t-180.5 51.5h-219l-89 -385 h254l-51 -225h-254z" />
<glyph unicode="&#xd1;" horiz-adv-x="1314" d="M143 0l326 1403h375l135 -1163h31l264 1163h221l-324 -1403h-358l-147 1178h-31l-275 -1178h-217zM678 1780q6 5 15.5 14t38 31t55 39t60 31t58.5 14q49 0 110.5 -24.5t112.5 -49.5t72 -25t64.5 21t76.5 42l33 21l4 -155q-5 -5 -14.5 -13.5t-36.5 -30t-52.5 -38 t-58.5 -30t-59 -13.5q-51 0 -158.5 49t-140.5 49q-21 0 -64.5 -22t-76.5 -44l-33 -22z" />
<glyph unicode="&#xd2;" horiz-adv-x="1269" d="M217 401q0 265 83.5 505.5t240.5 377.5q156 141 385 141q446 0 446 -424q0 -279 -85.5 -524.5t-250.5 -378.5q-75 -58 -174 -89.5t-207 -31.5q-217 0 -327.5 102t-110.5 322zM453 422q0 -133 53 -189.5t184 -56.5q116 0 201 76q115 103 180.5 313t65.5 416q0 132 -54 189 t-182 57q-113 0 -190 -68q-119 -108 -188.5 -326.5t-69.5 -410.5zM717 1733l108 194l422 -188l-100 -172z" />
<glyph unicode="&#xd3;" horiz-adv-x="1269" d="M217 401q0 265 83.5 505.5t240.5 377.5q156 141 385 141q446 0 446 -424q0 -279 -85.5 -524.5t-250.5 -378.5q-75 -58 -174 -89.5t-207 -31.5q-217 0 -327.5 102t-110.5 322zM453 422q0 -133 53 -189.5t184 -56.5q116 0 201 76q115 103 180.5 313t65.5 416q0 132 -54 189 t-182 57q-113 0 -190 -68q-119 -108 -188.5 -326.5t-69.5 -410.5zM809 1759l508 189l20 -199l-510 -164z" />
<glyph unicode="&#xd4;" horiz-adv-x="1269" d="M217 401q0 265 83.5 505.5t240.5 377.5q156 141 385 141q446 0 446 -424q0 -279 -85.5 -524.5t-250.5 -378.5q-75 -58 -174 -89.5t-207 -31.5q-217 0 -327.5 102t-110.5 322zM453 422q0 -133 53 -189.5t184 -56.5q116 0 201 76q115 103 180.5 313t65.5 416q0 132 -54 189 t-182 57q-113 0 -190 -68q-119 -108 -188.5 -326.5t-69.5 -410.5zM668 1608l348 299h129l196 -299h-202l-78 135l-158 -135h-235z" />
<glyph unicode="&#xd5;" horiz-adv-x="1269" d="M217 401q0 265 83.5 505.5t240.5 377.5q156 141 385 141q446 0 446 -424q0 -279 -85.5 -524.5t-250.5 -378.5q-75 -58 -174 -89.5t-207 -31.5q-217 0 -327.5 102t-110.5 322zM453 422q0 -133 53 -189.5t184 -56.5q116 0 201 76q115 103 180.5 313t65.5 416q0 132 -54 189 t-182 57q-113 0 -190 -68q-119 -108 -188.5 -326.5t-69.5 -410.5zM692 1780q6 5 15.5 14t38.5 31t55.5 39t60 31t58.5 14q49 0 110.5 -24.5t112 -49.5t71.5 -25t64.5 21t77.5 42l33 21l4 -155q-15 -14 -39 -35t-83 -55.5t-100 -34.5q-51 0 -158.5 49t-140.5 49 q-21 0 -64.5 -22t-76.5 -44l-33 -22z" />
<glyph unicode="&#xd6;" horiz-adv-x="1269" d="M217 401q0 265 83.5 505.5t240.5 377.5q156 141 385 141q446 0 446 -424q0 -279 -85.5 -524.5t-250.5 -378.5q-75 -58 -174 -89.5t-207 -31.5q-217 0 -327.5 102t-110.5 322zM453 422q0 -133 53 -189.5t184 -56.5q116 0 201 76q115 103 180.5 313t65.5 416q0 132 -54 189 t-182 57q-113 0 -190 -68q-119 -108 -188.5 -326.5t-69.5 -410.5zM702 1628l54 238h202l-57 -238h-199zM1106 1628l55 238h201l-57 -238h-199z" />
<glyph unicode="&#xd7;" d="M246 209l309 303l-307 303l141 141l303 -307l305 309l140 -141l-310 -305l310 -303l-142 -141l-303 309l-305 -309z" />
<glyph unicode="&#xd8;" horiz-adv-x="1269" d="M123 -172l184 272q-90 107 -90 301q0 265 83.5 505.5t240.5 377.5q156 141 385 141q147 0 248 -49l180 264l129 -53l-201 -293q90 -111 90 -293q0 -279 -85.5 -524.5t-250.5 -378.5q-75 -58 -174 -89.5t-207 -31.5q-146 0 -239 43l-178 -262zM453 422q0 -58 8 -94 l276 407l314 459q-53 33 -150 33q-113 0 -190 -68q-119 -108 -188.5 -326.5t-69.5 -410.5zM541 205q60 -29 149 -29q116 0 201 76q115 103 180.5 313t65.5 416q0 49 -9 86l-270 -397z" />
<glyph unicode="&#xd9;" horiz-adv-x="1216" d="M219 285q0 82 25 209l211 909h229l-219 -942q-19 -85 -19 -142q0 -79 52.5 -111t156.5 -32q141 0 206.5 65.5t99.5 213.5l219 948h229l-219 -948q-58 -250 -187.5 -364t-367.5 -114q-195 0 -305.5 76.5t-110.5 231.5zM690 1733l109 194l422 -188l-101 -172z" />
<glyph unicode="&#xda;" horiz-adv-x="1216" d="M219 285q0 82 25 209l211 909h229l-219 -942q-19 -85 -19 -142q0 -79 52.5 -111t156.5 -32q141 0 206.5 65.5t99.5 213.5l219 948h229l-219 -948q-58 -250 -187.5 -364t-367.5 -114q-195 0 -305.5 76.5t-110.5 231.5zM741 1759l508 189l21 -199l-510 -164z" />
<glyph unicode="&#xdb;" horiz-adv-x="1216" d="M219 285q0 82 25 209l211 909h229l-219 -942q-19 -85 -19 -142q0 -79 52.5 -111t156.5 -32q141 0 206.5 65.5t99.5 213.5l219 948h229l-219 -948q-58 -250 -187.5 -364t-367.5 -114q-195 0 -305.5 76.5t-110.5 231.5zM629 1608l348 299h129l197 -299h-203l-78 135 l-158 -135h-235z" />
<glyph unicode="&#xdc;" horiz-adv-x="1216" d="M219 285q0 82 25 209l211 909h229l-219 -942q-19 -85 -19 -142q0 -79 52.5 -111t156.5 -32q141 0 206.5 65.5t99.5 213.5l219 948h229l-219 -948q-58 -250 -187.5 -364t-367.5 -114q-195 0 -305.5 76.5t-110.5 231.5zM659 1628l56 238h200l-55 -238h-201zM1065 1628 l53 238h203l-57 -238h-199z" />
<glyph unicode="&#xdd;" horiz-adv-x="1021" d="M334 1403h231l127 -594l402 594h241l-583 -807l-142 -596h-213l142 610zM688 1759l508 189l21 -199l-510 -164z" />
<glyph unicode="&#xde;" horiz-adv-x="1112" d="M141 0l334 1419h217l-53 -213h250q104 0 180.5 -38t115.5 -103.5t51.5 -153.5t-11.5 -188q-50 -233 -198.5 -368t-364.5 -134l-254 2l-52 -223h-215zM461 446h252q114 0 187.5 73.5t105.5 203.5q15 51 12.5 97.5t-19 82.5t-58 57.5t-103.5 22.5l-248 4z" />
<glyph unicode="&#xdf;" horiz-adv-x="1132" d="M121 0l252 1073q28 115 69 192t101.5 123t135.5 65.5t179 19.5q184 0 279.5 -71.5t95.5 -203.5q0 -111 -45.5 -183t-147.5 -114q-104 -44 -141 -71t-37 -66q0 -33 24.5 -57t108.5 -78q52 -33 77 -51.5t49.5 -47.5t33 -63.5t8.5 -85.5q0 -186 -115.5 -295t-318.5 -109 q-60 0 -134.5 12.5t-119.5 24.5l-45 13l47 166q140 -27 230 -27q113 0 172 52.5t59 133.5q0 45 -24.5 72t-112.5 80q-93 55 -127.5 101.5t-34.5 117.5q0 105 49.5 166t163.5 117q93 45 124.5 78.5t31.5 89.5q0 108 -172 108q-112 0 -172 -55t-89 -183l-245 -1044h-209z" />
<glyph unicode="&#xe0;" horiz-adv-x="1056" d="M172 319q0 92 19 189.5t60.5 194.5t100 173t146.5 123.5t192 47.5q63 0 180.5 -15t203.5 -30l87 -15l-153 -663q-13 -57 -27 -137t-21 -131l-8 -52l-219 -8q23 147 31 186q-6 -8 -17 -22t-45.5 -49.5t-69.5 -62.5t-85.5 -49t-97.5 -22q-142 0 -209.5 91.5t-67.5 250.5z M397 319q0 -76 28 -113.5t97 -37.5q29 0 68.5 22.5t75.5 55t67.5 64.5t50.5 54l19 23l104 440q-139 31 -211 31q-71 0 -130 -53t-94.5 -135.5t-55 -174t-19.5 -176.5zM604 1374l107 180l419 -188l-94 -162z" />
<glyph unicode="&#xe1;" horiz-adv-x="1056" d="M172 319q0 92 19 189.5t60.5 194.5t100 173t146.5 123.5t192 47.5q63 0 180.5 -15t203.5 -30l87 -15l-153 -663q-13 -57 -27 -137t-21 -131l-8 -52l-219 -8q23 147 31 186q-6 -8 -17 -22t-45.5 -49.5t-69.5 -62.5t-85.5 -49t-97.5 -22q-142 0 -209.5 91.5t-67.5 250.5z M397 319q0 -76 28 -113.5t97 -37.5q29 0 68.5 22.5t75.5 55t67.5 64.5t50.5 54l19 23l104 440q-139 31 -211 31q-71 0 -130 -53t-94.5 -135.5t-55 -174t-19.5 -176.5zM674 1374l508 189l18 -199l-508 -166z" />
<glyph unicode="&#xe2;" horiz-adv-x="1056" d="M172 319q0 92 19 189.5t60.5 194.5t100 173t146.5 123.5t192 47.5q63 0 180.5 -15t203.5 -30l87 -15l-153 -663q-13 -57 -27 -137t-21 -131l-8 -52l-219 -8q23 147 31 186q-6 -8 -17 -22t-45.5 -49.5t-69.5 -62.5t-85.5 -49t-97.5 -22q-142 0 -209.5 91.5t-67.5 250.5z M397 319q0 -76 28 -113.5t97 -37.5q29 0 68.5 22.5t75.5 55t67.5 64.5t50.5 54l19 23l104 440q-139 31 -211 31q-71 0 -130 -53t-94.5 -135.5t-55 -174t-19.5 -176.5zM459 1188l334 338h161l179 -338h-222l-69 151l-148 -151h-235z" />
<glyph unicode="&#xe3;" horiz-adv-x="1056" d="M172 319q0 92 19 189.5t60.5 194.5t100 173t146.5 123.5t192 47.5q63 0 180.5 -15t203.5 -30l87 -15l-153 -663q-13 -57 -27 -137t-21 -131l-8 -52l-219 -8q23 147 31 186q-6 -8 -17 -22t-45.5 -49.5t-69.5 -62.5t-85.5 -49t-97.5 -22q-142 0 -209.5 91.5t-67.5 250.5z M397 319q0 -76 28 -113.5t97 -37.5q29 0 68.5 22.5t75.5 55t67.5 64.5t50.5 54l19 23l104 440q-139 31 -211 31q-71 0 -130 -53t-94.5 -135.5t-55 -174t-19.5 -176.5zM563 1395q15 14 39 34.5t83 54.5t99 34q43 0 98 -23t100 -46.5t65 -23.5t61.5 20.5t72.5 40.5l31 21 l9 -157q-5 -5 -14 -13t-36 -29t-52 -37t-57.5 -29t-57.5 -13q-49 0 -143.5 47t-121.5 47q-23 0 -66 -21t-75 -42l-31 -21z" />
<glyph unicode="&#xe4;" horiz-adv-x="1056" d="M172 319q0 92 19 189.5t60.5 194.5t100 173t146.5 123.5t192 47.5q63 0 180.5 -15t203.5 -30l87 -15l-153 -663q-13 -57 -27 -137t-21 -131l-8 -52l-219 -8q23 147 31 186q-6 -8 -17 -22t-45.5 -49.5t-69.5 -62.5t-85.5 -49t-97.5 -22q-142 0 -209.5 91.5t-67.5 250.5z M397 319q0 -76 28 -113.5t97 -37.5q29 0 68.5 22.5t75.5 55t67.5 64.5t50.5 54l19 23l104 440q-139 31 -211 31q-71 0 -130 -53t-94.5 -135.5t-55 -174t-19.5 -176.5zM516 1247l55 240h203l-57 -240h-201zM922 1247l53 240h203l-58 -240h-198z" />
<glyph unicode="&#xe5;" horiz-adv-x="1056" d="M172 319q0 92 19 189.5t60.5 194.5t100 173t146.5 123.5t192 47.5q63 0 180.5 -15t203.5 -30l87 -15l-153 -663q-13 -57 -27 -137t-21 -131l-8 -52l-219 -8q23 147 31 186q-6 -8 -17 -22t-45.5 -49.5t-69.5 -62.5t-85.5 -49t-97.5 -22q-142 0 -209.5 91.5t-67.5 250.5z M397 319q0 -76 28 -113.5t97 -37.5q29 0 68.5 22.5t75.5 55t67.5 64.5t50.5 54l19 23l104 440q-139 31 -211 31q-71 0 -130 -53t-94.5 -135.5t-55 -174t-19.5 -176.5zM684 1350q21 91 89 151t161 60q89 0 126 -55.5t19 -145.5q-17 -102 -87 -162.5t-165 -60.5 q-94 0 -130.5 59.5t-12.5 153.5zM807 1350q-8 -30 8 -54t49 -24q32 0 57.5 21.5t34.5 54.5q9 30 -8 51.5t-47 21.5q-33 0 -59 -20t-35 -51z" />
<glyph unicode="&#xe6;" horiz-adv-x="1492" d="M124 147.5q-18 74.5 1 157.5q30 140 115.5 210.5t216.5 92.5q153 25 297 25q10 30 15 61t3 65t-24.5 55.5t-63.5 21.5q-64 0 -156.5 -7t-153.5 -13l-61 -7l35 199q248 36 393 36q83 0 144 -28t86 -84q115 112 301 112q147 0 224 -70t83 -202q3 -100 -29 -209l-39 -147 l-583 4q-15 -79 -10 -117q5 -60 42 -91.5t115 -31.5q63 0 151.5 5t145.5 9l58 5l-39 -174q-195 -48 -377 -48q-202 0 -275 105q-75 -34 -199 -69.5t-198 -35.5q-86 0 -143 48t-75 122.5zM338 248.5q1 -31.5 22 -55t58 -23.5q99 0 274 49q-15 84 23 244q-112 -7 -213 -19 q-62 -6 -104.5 -40t-55.5 -93q-5 -31 -4 -62.5zM967 592l383 -4q25 89 16 151q-9 113 -143 113q-104 0 -164 -64.5t-92 -195.5z" />
<glyph unicode="&#xe7;" horiz-adv-x="835" d="M178 313q0 120 21 228t64.5 201t106.5 160.5t151.5 106t193.5 38.5q59 0 130 -13.5t113 -27.5l41 -13l-57 -164q-147 25 -235 25q-75 0 -134.5 -44t-95 -116.5t-53.5 -157.5t-18 -176q0 -95 42 -142.5t136 -47.5q38 0 94 6t92 12l37 5l-16 -168q-136 -44 -269 -48 l-14 -55h12q218 0 176 -176q-47 -199 -245 -199q-38 0 -80 4.5t-65 9.5l-23 5l34 139q68 -4 109 -4q78 0 92 59q8 32 -9 43t-56 11h-60l39 170q-121 19 -187.5 104t-66.5 225z" />
<glyph unicode="&#xe8;" horiz-adv-x="962" d="M174 309q0 111 20 215.5t63.5 199.5t107 165.5t158 112.5t208.5 42q336 0 336 -280q0 -189 -134 -262.5t-437 -73.5h-86q-13 -50 -13 -111q0 -72 47.5 -110.5t122.5 -38.5q64 0 148.5 9t136.5 17l53 9l-22 -168q-21 -6 -57.5 -16t-136 -26t-183.5 -16q-166 0 -249 81.5 t-83 250.5zM426 1374l106 180l420 -188l-94 -162zM436 596h96q171 0 243.5 37t72.5 129q0 55 -32 78.5t-95 23.5q-213 0 -285 -268z" />
<glyph unicode="&#xe9;" horiz-adv-x="962" d="M174 309q0 111 20 215.5t63.5 199.5t107 165.5t158 112.5t208.5 42q336 0 336 -280q0 -189 -134 -262.5t-437 -73.5h-86q-13 -50 -13 -111q0 -72 47.5 -110.5t122.5 -38.5q64 0 148.5 9t136.5 17l53 9l-22 -168q-21 -6 -57.5 -16t-136 -26t-183.5 -16q-166 0 -249 81.5 t-83 250.5zM436 596h96q171 0 243.5 37t72.5 129q0 55 -32 78.5t-95 23.5q-213 0 -285 -268zM575 1374l508 189l19 -199l-508 -166z" />
<glyph unicode="&#xea;" horiz-adv-x="962" d="M174 309q0 111 20 215.5t63.5 199.5t107 165.5t158 112.5t208.5 42q336 0 336 -280q0 -189 -134 -262.5t-437 -73.5h-86q-13 -50 -13 -111q0 -72 47.5 -110.5t122.5 -38.5q64 0 148.5 9t136.5 17l53 9l-22 -168q-21 -6 -57.5 -16t-136 -26t-183.5 -16q-166 0 -249 81.5 t-83 250.5zM410 1188l331 338h164l176 -338h-219l-71 151l-146 -151h-235zM436 596h96q171 0 243.5 37t72.5 129q0 55 -32 78.5t-95 23.5q-213 0 -285 -268z" />
<glyph unicode="&#xeb;" horiz-adv-x="962" d="M174 309q0 111 20 215.5t63.5 199.5t107 165.5t158 112.5t208.5 42q336 0 336 -280q0 -189 -134 -262.5t-437 -73.5h-86q-13 -50 -13 -111q0 -72 47.5 -110.5t122.5 -38.5q64 0 148.5 9t136.5 17l53 9l-22 -168q-21 -6 -57.5 -16t-136 -26t-183.5 -16q-166 0 -249 81.5 t-83 250.5zM436 596h96q171 0 243.5 37t72.5 129q0 55 -32 78.5t-95 23.5q-213 0 -285 -268zM469 1247l55 240h201l-55 -240h-201zM874 1247l54 240h202l-57 -240h-199z" />
<glyph unicode="&#xec;" horiz-adv-x="464" d="M123 0l235 1024h222l-236 -1024h-221zM152 1374l106 180l420 -188l-94 -162z" />
<glyph unicode="&#xed;" horiz-adv-x="464" d="M123 0l235 1024h222l-236 -1024h-221zM365 1374l507 189l19 -199l-508 -166z" />
<glyph unicode="&#xee;" horiz-adv-x="464" d="M123 0l235 1024h222l-236 -1024h-221zM154 1188l333 338h162l178 -338h-221l-69 151l-148 -151h-235z" />
<glyph unicode="&#xef;" horiz-adv-x="464" d="M123 0l235 1024h222l-236 -1024h-221zM195 1247l55 240h201l-56 -240h-200zM600 1247l53 240h203l-57 -240h-199z" />
<glyph unicode="&#xf0;" horiz-adv-x="1071" d="M157 279q-2 62 11 129q37 215 180.5 349t345.5 134q61 0 126.5 -14.5t100.5 -28.5l35 -14q38 216 -170 321l-221 -147l-78 122l131 87q-99 26 -157 38l76 195q195 -22 319 -74l207 140l74 -125l-138 -93q252 -185 158 -571q-94 -390 -243.5 -567.5t-405.5 -177.5 q-83 0 -149 23t-107 63t-67 94.5t-28 116.5zM395 410q-20 -102 16.5 -158.5t147.5 -56.5q244 0 352 436q-4 4 -34.5 16.5t-92.5 26.5t-122 14q-102 0 -176 -78.5t-91 -199.5z" />
<glyph unicode="&#xf1;" horiz-adv-x="1036" d="M123 0h221l158 684q6 7 16.5 18.5t42 40.5t60 51.5t64.5 41t63 18.5q61 0 84.5 -32.5t23.5 -100.5q0 -51 -37 -227l-114 -494h221l116 510q43 177 43 262q0 125 -59.5 200t-185.5 75q-43 0 -89 -16.5t-80.5 -39.5t-63 -46t-43.5 -39l-15 -17l22 135h-213zM512 1395 q15 14 39 34.5t83 54.5t99 34q43 0 97.5 -23t99.5 -46.5t65 -23.5t61.5 20.5t73.5 40.5l31 21l8 -157q-5 -5 -14 -13t-36 -29t-52 -37t-57.5 -29t-57.5 -13q-49 0 -143 47t-121 47q-23 0 -66 -21t-74 -42l-32 -21z" />
<glyph unicode="&#xf2;" horiz-adv-x="1013" d="M174 342q0 103 23 205t68 191t106 157.5t144 108.5t175 40q383 0 383 -368q0 -130 -34.5 -253.5t-98 -223.5t-164.5 -161t-223 -61q-187 0 -283 88t-96 277zM395 340q0 -84 40.5 -129t117.5 -45q89 0 159 76t105 191.5t35 244.5q0 84 -41 131t-121 47q-87 0 -156 -77 t-104 -194t-35 -245zM485 1374l107 180l420 -188l-94 -162z" />
<glyph unicode="&#xf3;" horiz-adv-x="1013" d="M174 342q0 103 23 205t68 191t106 157.5t144 108.5t175 40q383 0 383 -368q0 -130 -34.5 -253.5t-98 -223.5t-164.5 -161t-223 -61q-187 0 -283 88t-96 277zM395 340q0 -84 40.5 -129t117.5 -45q89 0 159 76t105 191.5t35 244.5q0 84 -41 131t-121 47q-87 0 -156 -77 t-104 -194t-35 -245zM578 1374l507 189l19 -199l-508 -166z" />
<glyph unicode="&#xf4;" horiz-adv-x="1013" d="M174 342q0 103 23 205t68 191t106 157.5t144 108.5t175 40q383 0 383 -368q0 -130 -34.5 -253.5t-98 -223.5t-164.5 -161t-223 -61q-187 0 -283 88t-96 277zM395 340q0 -84 40.5 -129t117.5 -45q89 0 159 76t105 191.5t35 244.5q0 84 -41 131t-121 47q-87 0 -156 -77 t-104 -194t-35 -245zM440 1188l334 338h162l178 -338h-221l-70 151l-147 -151h-236z" />
<glyph unicode="&#xf5;" horiz-adv-x="1013" d="M174 342q0 103 23 205t68 191t106 157.5t144 108.5t175 40q383 0 383 -368q0 -130 -34.5 -253.5t-98 -223.5t-164.5 -161t-223 -61q-187 0 -283 88t-96 277zM395 340q0 -84 40.5 -129t117.5 -45q89 0 159 76t105 191.5t35 244.5q0 84 -41 131t-121 47q-87 0 -156 -77 t-104 -194t-35 -245zM469 1395q15 14 39 34.5t83 54.5t99 34q43 0 97.5 -23t99.5 -46.5t65 -23.5t61.5 20.5t72.5 40.5l32 21l8 -157q-5 -5 -14 -13t-36 -29t-52 -37t-57.5 -29t-57.5 -13q-49 0 -143 47t-121 47q-23 0 -66 -21t-75 -42l-31 -21z" />
<glyph unicode="&#xf6;" horiz-adv-x="1013" d="M174 342q0 103 23 205t68 191t106 157.5t144 108.5t175 40q383 0 383 -368q0 -130 -34.5 -253.5t-98 -223.5t-164.5 -161t-223 -61q-187 0 -283 88t-96 277zM395 340q0 -84 40.5 -129t117.5 -45q89 0 159 76t105 191.5t35 244.5q0 84 -41 131t-121 47q-87 0 -156 -77 t-104 -194t-35 -245zM498 1247l55 240h182l-55 -240h-182zM885 1247l53 240h184l-57 -240h-180z" />
<glyph unicode="&#xf7;" d="M334 494v225h139v158h436v-158h142v-225h-717zM580 47v242h221v-242h-221z" />
<glyph unicode="&#xf8;" horiz-adv-x="1013" d="M119 -170l153 240q-96 90 -96 276q0 103 23 205t68 191.5t106 158t144 108.5t175 40q90 0 176 -27l133 217l121 -53l-145 -228q98 -95 98 -278q0 -104 -21 -204t-65 -189.5t-104.5 -157.5t-146 -107.5t-183.5 -39.5q-101 0 -174 24l-141 -229zM397 344q0 -38 9 -68 l165 263l191 309q-30 12 -70 12q-87 0 -156 -77t-104 -194t-35 -245zM487 180q30 -10 68 -10q89 0 159 76t105 191.5t35 244.5q0 37 -10 70l-170 -267z" />
<glyph unicode="&#xf9;" horiz-adv-x="1036" d="M188 252q0 69 41 262l117 510h221l-112 -494q-37 -151 -37 -227q0 -66 24 -99.5t82 -33.5q27 0 62.5 17.5t66.5 42.5t59 50t44 42l16 18l158 684h221l-236 -1024h-213l23 135q-6 -6 -16 -17t-42.5 -38t-65 -48t-78.5 -38t-89 -17q-126 0 -186 75t-60 200zM492 1374 l106 180l420 -188l-94 -162z" />
<glyph unicode="&#xfa;" horiz-adv-x="1036" d="M188 252q0 69 41 262l117 510h221l-112 -494q-37 -151 -37 -227q0 -66 24 -99.5t82 -33.5q27 0 62.5 17.5t66.5 42.5t59 50t44 42l16 18l158 684h221l-236 -1024h-213l23 135q-6 -6 -16 -17t-42.5 -38t-65 -48t-78.5 -38t-89 -17q-126 0 -186 75t-60 200zM592 1374 l508 189l18 -199l-508 -166z" />
<glyph unicode="&#xfb;" horiz-adv-x="1036" d="M188 252q0 69 41 262l117 510h221l-112 -494q-37 -151 -37 -227q0 -66 24 -99.5t82 -33.5q27 0 62.5 17.5t66.5 42.5t59 50t44 42l16 18l158 684h221l-236 -1024h-213l23 135q-6 -6 -16 -17t-42.5 -38t-65 -48t-78.5 -38t-89 -17q-126 0 -186 75t-60 200zM424 1188 l332 338h164l176 -338h-219l-72 151l-146 -151h-235z" />
<glyph unicode="&#xfc;" horiz-adv-x="1036" d="M188 252q0 69 41 262l117 510h221l-112 -494q-37 -151 -37 -227q0 -66 24 -99.5t82 -33.5q27 0 62.5 17.5t66.5 42.5t59 50t44 42l16 18l158 684h221l-236 -1024h-213l23 135q-6 -6 -16 -17t-42.5 -38t-65 -48t-78.5 -38t-89 -17q-126 0 -186 75t-60 200zM471 1247 l55 240h201l-55 -240h-201zM877 1247l53 240h200l-55 -240h-198z" />
<glyph unicode="&#xfd;" horiz-adv-x="942" d="M211 -440l221 440h-156l-8 1024h219l-10 -840h45l396 840h225l-709 -1464h-223zM555 1374l508 189l18 -199l-508 -166z" />
<glyph unicode="&#xfe;" horiz-adv-x="1003" d="M16 -436l445 1882h209l-117 -502q11 9 28 20t52.5 32t80 34.5t85.5 13.5q88 0 148.5 -33.5t89 -86.5t38 -123.5t2 -139t-27.5 -137.5q-81 -299 -208.5 -423t-346.5 -124q-38 0 -79 3t-65 6.5t-24 5.5l-101 -428h-209zM373 193l162 -17q115 0 184.5 87t116.5 263 q10 39 15.5 78t3.5 82.5t-14 77t-41 55t-73 21.5q-42 0 -98 -26t-91 -50l-36 -23z" />
<glyph unicode="&#xff;" horiz-adv-x="942" d="M211 -440l221 440h-156l-8 1024h219l-10 -840h45l396 840h225l-709 -1464h-223zM432 1247l55 240h201l-55 -240h-201zM838 1247l53 240h201l-56 -240h-198z" />
<glyph unicode="&#x152;" horiz-adv-x="1726" d="M205 319q-6 166 47 388q90 378 254 556.5t424 178.5q101 0 241 -23h811l-49 -219h-600l-94 -389h481l-47 -209l-481 4l-92 -387h598l-51 -219h-805q-157 -23 -256 -23q-189 0 -281 86t-100 256zM432 420q0 -117 54.5 -170t177.5 -53q53 0 221 14l237 997q-127 13 -217 13 q-167 0 -265 -118t-165 -394q-43 -190 -43 -289z" />
<glyph unicode="&#x153;" horiz-adv-x="1589" d="M172 219q-17 134 23 299q24 98 53 172.5t74 143.5t102 113.5t138.5 70.5t182.5 26q218 0 283 -145q128 145 338 145q145 0 223.5 -65.5t87.5 -190.5q8 -117 -22 -215l-49 -157l-584 4q-18 -70 -12 -123q12 -117 164 -117q63 0 152 5t146 9l58 5l-39 -174 q-195 -48 -379 -48q-210 0 -276 132q-129 -132 -340 -132q-299 0 -324 242zM385 287q12 -111 154 -111q42 0 77 11t60.5 27.5t48 46t37 55t29.5 67t23 70t20 75.5q27 108 20 185q-5 68 -41.5 100.5t-112.5 32.5q-120 0 -185 -81.5t-103 -246.5q-38 -153 -27 -231zM1061 592 l389 -4q23 103 18 151q-4 55 -38 79t-105 24q-107 0 -171 -61t-93 -189z" />
<glyph unicode="&#x178;" horiz-adv-x="1021" d="M334 1403h231l127 -594l402 594h241l-583 -807l-142 -596h-213l142 610zM580 1636l55 240h184l-57 -240h-182zM977 1636l55 240h185l-60 -240h-180z" />
<glyph unicode="&#x2c6;" horiz-adv-x="1619" d="M752 1188l331 338h129l177 -338h-203l-72 151l-145 -151h-217z" />
<glyph unicode="&#x2dc;" horiz-adv-x="897" d="M424 1395q15 14 39 34.5t83 54.5t99 34q43 0 97.5 -23t99.5 -46.5t65 -23.5t61.5 20.5t73.5 40.5l31 21l8 -157q-5 -5 -14 -13t-36 -29t-52 -37t-57.5 -29t-57.5 -13q-49 0 -143 47t-121 47q-23 0 -66 -21t-74 -42l-32 -21z" />
<glyph unicode="&#x2000;" horiz-adv-x="974" />
<glyph unicode="&#x2001;" horiz-adv-x="1948" />
<glyph unicode="&#x2002;" horiz-adv-x="974" />
<glyph unicode="&#x2003;" horiz-adv-x="1948" />
<glyph unicode="&#x2004;" horiz-adv-x="649" />
<glyph unicode="&#x2005;" horiz-adv-x="487" />
<glyph unicode="&#x2006;" horiz-adv-x="324" />
<glyph unicode="&#x2007;" horiz-adv-x="324" />
<glyph unicode="&#x2008;" horiz-adv-x="243" />
<glyph unicode="&#x2009;" horiz-adv-x="389" />
<glyph unicode="&#x200a;" horiz-adv-x="108" />
<glyph unicode="&#x2010;" horiz-adv-x="608" d="M147 444l52 201h512l-49 -201h-515z" />
<glyph unicode="&#x2011;" horiz-adv-x="608" d="M147 444l52 201h512l-49 -201h-515z" />
<glyph unicode="&#x2012;" horiz-adv-x="608" d="M147 444l52 201h512l-49 -201h-515z" />
<glyph unicode="&#x2013;" horiz-adv-x="1138" d="M184 451v190h1024v-190h-1024z" />
<glyph unicode="&#x2014;" horiz-adv-x="2162" d="M184 451v190h2048v-190h-2048z" />
<glyph unicode="&#x2018;" horiz-adv-x="362" d="M236 907l258 494h165l-202 -494h-221z" />
<glyph unicode="&#x2019;" horiz-adv-x="362" d="M238 909l202 494h222l-259 -494h-165z" />
<glyph unicode="&#x201a;" horiz-adv-x="327" d="M-90 -311l203 493h221l-258 -493h-166z" />
<glyph unicode="&#x201c;" horiz-adv-x="720" d="M233 909l259 494h165l-202 -494h-222zM594 909l258 494h166l-203 -494h-221z" />
<glyph unicode="&#x201d;" horiz-adv-x="722" d="M238 909l202 494h222l-259 -494h-165zM598 909l203 494h221l-258 -494h-166z" />
<glyph unicode="&#x201e;" horiz-adv-x="690" d="M-131 -317l258 493h166l-203 -493h-221zM270 -317l258 493h166l-202 -493h-222z" />
<glyph unicode="&#x2022;" horiz-adv-x="962" d="M340 211v577h512v-577h-512z" />
<glyph unicode="&#x2026;" horiz-adv-x="1280" d="M51 0l62 276h225l-62 -276h-225zM528 0l62 276h225l-61 -276h-226zM1006 0l61 276h225l-61 -276h-225z" />
<glyph unicode="&#x202f;" horiz-adv-x="389" />
<glyph unicode="&#x2039;" horiz-adv-x="495" d="M133 451l39 102l479 315l-63 -219l-248 -153l172 -174l-55 -201z" />
<glyph unicode="&#x203a;" horiz-adv-x="499" d="M78 121l63 219l248 154l-172 174l55 200l324 -329l-39 -103z" />
<glyph unicode="&#x205f;" horiz-adv-x="487" />
<glyph unicode="&#x20ac;" d="M195 397l41 176h86q14 103 34 175h-84l43 176h101q41 98 94.5 176.5t124.5 141.5t163 97.5t199 34.5q71 0 154.5 -13t131.5 -27l48 -13l-51 -166q-135 29 -293 29q-206 0 -338 -260h479l-38 -176h-506q-26 -91 -37 -175h504l-41 -176h-475v-14q0 -105 47 -159t149 -54 q69 0 149 7t126 15l45 7l-17 -172q-180 -50 -332 -50q-198 0 -296.5 100t-98.5 290v30h-112z" />
<glyph unicode="&#x2122;" horiz-adv-x="1419" d="M442 1169v138h410v-138h-107v-489h-151v489h-152zM909 678v629h183l106 -369l115 369h180v-629h-141v401l-99 -364h-100l-102 364v-401h-142z" />
<glyph unicode="&#xe000;" horiz-adv-x="1024" d="M0 0v1024h1024v-1024h-1024z" />
</font>
</defs>
</svg>
