<?xml version="1.0" standalone="no"?>
<!DOCTYPE svg PUBLIC "-//W3C//DTD SVG 1.1//EN" "http://www.w3.org/Graphics/SVG/1.1/DTD/svg11.dtd" >
<svg xmlns="http://www.w3.org/2000/svg">
<metadata></metadata>
<defs>
<font id="TitilliumUpRegular" horiz-adv-x="1146" >
<font-face units-per-em="2048" ascent="1536" descent="-512" />
<missing-glyph horiz-adv-x="450" />
<glyph horiz-adv-x="0" />
<glyph horiz-adv-x="2048" />
<glyph unicode=" "  horiz-adv-x="450" />
<glyph unicode="&#x09;" horiz-adv-x="450" />
<glyph unicode="&#xa0;" horiz-adv-x="450" />
<glyph unicode="!" horiz-adv-x="425" d="M176 0v170h74v-170h-74zM176 1434h74l-6 -1002h-64z" />
<glyph unicode="&#x22;" horiz-adv-x="651" d="M147 1430h72l-2 -435h-67zM432 1430h72l-2 -435h-68z" />
<glyph unicode="#" d="M61 389v66h246v463h-246v65h246v389h74v-389h385v389h74v-389h245v-65h-245v-463h245v-66h-245v-389h-74v389h-385v-389h-74v389h-246zM381 455h385v463h-385v-463z" />
<glyph unicode="$" d="M193 1020q0 176 101 263t286 87q33 0 49 -2l30 246h68l-31 -250q52 -4 111 -11.5t92 -12.5l33 -5l-6 -61q-121 18 -238 26l-72 -571q86 -17 145 -40t105.5 -61.5t69 -96.5t22.5 -138q0 -199 -93 -305t-283 -106q-38 0 -58 2l-26 -228h-68l29 232q-56 4 -120.5 10 t-100.5 10l-37 4l8 62q133 -17 256 -25l78 625q-88 17 -148 40t-108 62t-71 99t-23 145zM266 1020q0 -71 18 -120t58 -80t87.5 -48t121.5 -31l70 564h-41q-155 0 -234.5 -69t-79.5 -216zM532 45h50q303 0 303 342q0 128 -68 189t-209 88z" />
<glyph unicode="%" d="M74 1165q0 273 211 273q99 0 155 -66.5t56 -208.5t-57 -212t-154 -70q-98 0 -154.5 70t-56.5 214zM145 1165q0 -219 140 -219q74 0 106.5 54.5t32.5 162.5q0 107 -32 158t-107 51q-74 0 -107 -51t-33 -156zM389 12l295 1424l68 -11l-295 -1423zM649 285q0 272 211 272 q99 0 155 -66t56 -208t-57 -212.5t-154 -70.5q-98 0 -154.5 70.5t-56.5 214.5zM721 285q0 -109 33 -164t106 -55q74 0 106.5 54.5t32.5 162.5q0 107 -32 158t-107 51q-74 0 -106.5 -51t-32.5 -156z" />
<glyph unicode="&#x26;" horiz-adv-x="1298" d="M84 426q0 27 1.5 49.5t8.5 57t19 63t35.5 63.5t56 63.5t82.5 57t112 49.5q-63 81 -81.5 151.5t-18.5 176.5q0 137 75.5 216t211.5 79q148 0 225.5 -73t77.5 -218q0 -49 -5 -87t-23.5 -87t-51.5 -87.5t-93.5 -78.5t-144.5 -71l365 -377q46 132 53 301h72 q-3 -85 -22 -185.5t-50 -169.5q17 -17 45.5 -46t88 -89.5t98 -100.5t36.5 -40l-49 -55l-252 262q-66 -141 -172 -204.5t-256 -63.5q-220 0 -332 112t-112 332zM162 428q0 -173 89.5 -275t278.5 -102q264 0 375 252l-452 469q-73 -22 -126.5 -52.5t-84.5 -63t-49.5 -73 t-24.5 -76.5t-6 -79zM377 1157q0 -90 14 -146.5t42.5 -99.5t90.5 -108q160 58 223.5 138t63.5 220q0 115 -54.5 170t-170.5 55q-98 0 -153.5 -63t-55.5 -166z" />
<glyph unicode="'" horiz-adv-x="366" d="M147 1430h72l-2 -435h-67z" />
<glyph unicode="(" horiz-adv-x="458" d="M115 616q0 115 19 251.5t46.5 249.5t55 209.5t46.5 151.5l19 54h72q-8 -22 -20.5 -60t-44.5 -151t-57 -219.5t-45 -242.5t-20 -243t19.5 -235.5t47 -236.5t54.5 -200.5t47 -145.5l19 -52h-72q-8 19 -20.5 52.5t-44.5 135t-56.5 200.5t-44.5 233t-20 249z" />
<glyph unicode=")" horiz-adv-x="456" d="M84 -242q8 22 20.5 60t44.5 151t56.5 219.5t44.5 242.5t20 243t-19 235.5t-46.5 236.5t-55 200.5t-46.5 145.5l-19 52h72q8 -19 20.5 -52.5t44.5 -135t56.5 -200.5t44.5 -233t20 -249t-19 -251.5t-46.5 -249.5t-55 -209.5t-46.5 -151.5l-19 -54h-72z" />
<glyph unicode="*" horiz-adv-x="829" d="M119 938l225 164l-223 164l41 55l225 -166l86 264l66 -20l-86 -266h276v-70h-280l86 -264l-66 -21l-86 266l-225 -161z" />
<glyph unicode="+" d="M121 479v70h414v434h73v-434h418v-70h-418v-438h-73v438h-414z" />
<glyph unicode="," horiz-adv-x="380" d="M88 -266l76 436h78l-99 -436h-55z" />
<glyph unicode="-" horiz-adv-x="788" d="M145 516v70h498v-70h-498z" />
<glyph unicode="." horiz-adv-x="364" d="M145 0v170h74v-170h-74z" />
<glyph unicode="/" horiz-adv-x="737" d="M68 25l536 1409l68 -27l-537 -1409z" />
<glyph unicode="0" d="M111 647q0 172 22 300t60.5 208.5t98 129.5t126 68t153.5 19q91 0 159 -18.5t127.5 -67t97 -129.5t58.5 -208t21 -300q0 -76 -4.5 -141t-18 -135t-34.5 -125.5t-56.5 -106.5t-83 -85t-114.5 -54t-150 -20q-81 0 -147.5 19.5t-113.5 53t-83 83.5t-58 105.5t-36 125 t-19 135.5t-5 143zM184 643q0 -61 3 -113t13 -114.5t26.5 -112.5t46.5 -99t70 -82t98.5 -53t131.5 -20q71 0 128 18t97 48t69.5 76t47 95.5t28.5 112.5t14.5 121t3.5 127q0 194 -24.5 323.5t-76 202.5t-120.5 102.5t-169 29.5q-78 0 -136 -17.5t-107 -61.5t-79.5 -118.5 t-47.5 -190t-17 -274.5z" />
<glyph unicode="1" d="M270 1075l422 279h64v-1354h-74v1266l-377 -250z" />
<glyph unicode="2" d="M143 0v61l480 498q75 79 114 123.5t80 105t57.5 116.5t16.5 122q0 148 -88.5 213.5t-253.5 65.5q-63 0 -159 -13.5t-161 -27.5l-65 -13l-10 68q227 53 397 53q414 0 414 -346q0 -71 -17 -133t-56 -123t-82 -111.5t-114 -123.5l-456 -467h768v-68h-865z" />
<glyph unicode="3" d="M141 29l13 67q217 -47 426 -47q170 0 258 81t88 237q0 88 -25.5 150t-73.5 96t-103 49.5t-128 19.5h-268v68h266q44 0 93 17.5t95 50.5t75.5 90t29.5 128q0 144 -76.5 206.5t-247.5 62.5q-84 0 -182 -11.5t-155 -22.5l-56 -11l-10 65q217 47 401 47q205 0 302.5 -82.5 t97.5 -255.5q0 -114 -55.5 -190.5t-170.5 -120.5q51 -14 87 -29t71.5 -41.5t57.5 -62.5t35 -91t13 -126q0 -195 -107.5 -293t-311.5 -98q-89 0 -199 12t-175 24z" />
<glyph unicode="4" d="M102 270v60l443 1024h78l-443 -1016h602v491h74v-491h188v-68h-188v-270h-74v270h-680z" />
<glyph unicode="5" d="M154 35l10 69q233 -51 409 -51q162 0 265.5 104.5t103.5 293.5q0 91 -28 156t-78 100.5t-109.5 51t-132.5 15.5q-76 0 -168 -28t-146 -56l-55 -28l-61 8l39 684h749v-70h-684l-37 -545q22 12 59 29t133.5 45.5t172.5 28.5q92 0 165.5 -20.5t132 -65t90.5 -122t32 -183.5 q0 -228 -121 -346.5t-320 -118.5q-82 0 -187 12t-170 24z" />
<glyph unicode="6" d="M127 633q0 166 25 293.5t68.5 211t108 137t138 75.5t162.5 22q68 0 153.5 -9t137.5 -19l51 -9l-8 -65q-176 35 -334 35q-197 0 -305.5 -136.5t-120.5 -437.5q26 11 69 27.5t148 44.5t176 28q209 0 324.5 -99.5t115.5 -297.5q0 -222 -111.5 -337t-320.5 -115 q-235 0 -356 172t-121 479zM201 633q0 -275 103 -429.5t300 -154.5q359 0 359 385q0 330 -369 330q-77 0 -175 -25.5t-157 -50.5l-59 -26q-2 -8 -2 -29z" />
<glyph unicode="7" d="M180 1286v68h797v-156l-537 -1216l-67 28l530 1204v72h-723z" />
<glyph unicode="8" d="M74 344q0 82 20 143t61.5 103t86 68.5t112.5 54.5q-128 45 -193 118.5t-65 204.5q0 170 122.5 253t350.5 83q230 0 356 -82.5t126 -255.5q0 -132 -69.5 -205.5t-213.5 -115.5q69 -20 120 -46t94.5 -65.5t66 -98.5t22.5 -136q0 -89 -26 -157t-70 -110.5t-109.5 -69.5 t-137 -37.5t-159.5 -10.5q-104 0 -189.5 18.5t-156 58.5t-110 112.5t-39.5 172.5zM147 346q0 -297 422 -297q78 0 140 9t117 31t92 57.5t58 90.5t21 128q0 46 -9.5 84t-24.5 66t-41 51t-50.5 38.5t-62 29.5t-66.5 22.5t-73 19.5h-224q-146 -35 -222.5 -109.5t-76.5 -220.5z M170 1034q0 -120 68 -187t208 -106h224q150 36 228.5 104t78.5 187q0 145 -103.5 209t-304.5 64q-198 0 -298.5 -62.5t-100.5 -208.5z" />
<glyph unicode="9" d="M109 936q0 200 125 318t319 118q230 0 345.5 -182t115.5 -526q0 -189 -35 -323.5t-103.5 -212t-157.5 -112t-208 -34.5q-68 0 -154.5 10.5t-139.5 21.5l-52 11l12 65q176 -39 334 -39q422 0 428 559q-28 -10 -73.5 -24t-154.5 -38t-180 -24q-199 0 -310 104t-111 308z M186 936q0 -171 90.5 -256.5t258.5 -85.5q65 0 166.5 22t170.5 44l68 22q-3 297 -98 459t-289 162q-164 0 -265.5 -99t-101.5 -268z" />
<glyph unicode=":" horiz-adv-x="364" d="M145 0v170h74v-170h-74zM145 713v170h74v-170h-74z" />
<glyph unicode=";" horiz-adv-x="432" d="M115 -266h55l98 436h-78zM197 713v170h73v-170h-73z" />
<glyph unicode="&#x3c;" d="M119 477v74l868 442v-80l-801 -399l801 -399v-84z" />
<glyph unicode="=" d="M139 305v70h869v-70h-869zM139 651v70h869v-70h-869z" />
<glyph unicode="&#x3e;" d="M160 31v84l801 399l-801 399v80l868 -442v-74z" />
<glyph unicode="?" horiz-adv-x="819" d="M70 1403q178 49 301 49q191 0 278.5 -72.5t87.5 -251.5q0 -85 -41.5 -159t-171.5 -228q-76 -89 -110.5 -149.5t-34.5 -124.5v-82h-68q-6 53 -6 82q0 80 33.5 140t130.5 181q118 146 154 207.5t36 132.5q0 149 -64 201.5t-224 52.5q-55 0 -127.5 -12t-117.5 -24l-46 -11z M301 2v170h78v-170h-78z" />
<glyph unicode="@" horiz-adv-x="1896" d="M113 535q0 256 54 436.5t165 291t268.5 160.5t376.5 50q159 0 282.5 -25t214.5 -77.5t154 -128t101.5 -182.5t55.5 -234.5t17 -290.5q0 -553 -346 -553q-115 0 -171.5 51t-67.5 160q-5 -9 -15.5 -23t-44.5 -50.5t-70.5 -64t-93.5 -50.5t-114 -23q-314 0 -314 503 q0 108 10.5 189.5t38 153t73 117t116.5 71.5t168 26q41 0 119 -8t136 -16l58 -8v-777q0 -94 40.5 -140t131.5 -46q44 0 80 11t72.5 43.5t61.5 85t40.5 141.5t15.5 207q0 185 -21 319.5t-71.5 243t-136.5 174.5t-214 100.5t-306 34.5q-205 0 -349.5 -45.5t-244.5 -148.5 t-147.5 -270t-47.5 -408q0 -186 23.5 -323t78 -245t144.5 -174.5t222.5 -100.5t312.5 -34q35 0 104 5t121 10l51 5l4 -67q-188 -19 -280 -19q-194 0 -337.5 36.5t-243 108.5t-160.5 187.5t-88 263.5t-27 347zM641 492q0 -82 6.5 -146t23 -121.5t44 -95.5t71 -60t101.5 -22 q53 0 105.5 27t90.5 65.5t68.5 77t45.5 65.5l15 27v643q-186 25 -247 25q-62 0 -111.5 -14.5t-83 -38.5t-57.5 -62t-38 -76.5t-21.5 -91.5t-10 -98t-2.5 -104z" />
<glyph unicode="A" horiz-adv-x="1134" d="M57 0l418 1434h184l418 -1434h-73l-130 440h-614l-129 -440h-74zM279 508h575l-248 856h-78z" />
<glyph unicode="B" horiz-adv-x="1179" d="M174 0v1434h463q190 0 283.5 -84t93.5 -267q0 -275 -197 -342q133 -40 191.5 -122.5t58.5 -215.5q0 -211 -101 -307t-315 -96h-477zM248 68h403q175 0 256.5 80.5t81.5 254.5q0 152 -87 223.5t-261 71.5h-393v-630zM248 766h393q102 0 170 43t97.5 112t29.5 162 q0 147 -74.5 215t-226.5 68h-389v-600z" />
<glyph unicode="C" horiz-adv-x="1032" d="M127 711q0 113 8 203.5t27 177.5t53.5 150t85.5 112t126 73.5t171 24.5q82 0 169 -10t133 -20l46 -11l-6 -70q-184 41 -342 41q-72 0 -130 -17.5t-98.5 -48t-70.5 -78.5t-48 -101.5t-28.5 -125.5t-14 -141.5t-3.5 -158.5q0 -88 4 -157.5t15 -140t29.5 -123.5t48 -99.5 t70.5 -76t98 -46.5t128 -17q61 0 146.5 10.5t140.5 20.5l55 10l6 -69q-194 -41 -348 -41q-115 0 -198.5 34t-135.5 93t-83 153.5t-42.5 200.5t-11.5 248z" />
<glyph unicode="D" horiz-adv-x="1236" d="M174 0v1434h483q242 0 347.5 -165t105.5 -532q0 -381 -102.5 -559t-350.5 -178h-483zM248 70h409q106 0 179.5 43.5t116 131.5t61 207t18.5 285q0 131 -11.5 229t-38 175t-69.5 125t-106.5 73t-149.5 25h-409v-1294z" />
<glyph unicode="E" horiz-adv-x="1044" d="M174 0v1434h772v-68h-698v-596h583v-68h-583v-634h698v-68h-772z" />
<glyph unicode="F" horiz-adv-x="1001" d="M174 0v1434h774v-68h-700v-651h586v-68h-586v-647h-74z" />
<glyph unicode="G" horiz-adv-x="1179" d="M125 711q0 97 5 175.5t19.5 157.5t38 138t62 112t90 86.5t123.5 52.5t162 19q91 0 195 -13t162 -25l58 -13l-8 -64q-231 47 -407 47q-71 0 -128 -12.5t-99.5 -39t-74.5 -60t-53 -82t-34.5 -97.5t-20.5 -115.5t-9.5 -127t-2.5 -139.5q0 -107 11.5 -198.5t41 -179 t75.5 -149t121 -98.5t173 -37q61 0 146.5 10.5t140.5 20.5l55 10v557h-277v68h350v-682q-261 -51 -415 -51q-113 0 -201 39t-143.5 105t-91 161t-50 198t-14.5 226z" />
<glyph unicode="H" horiz-adv-x="1277" d="M174 0v1434h74v-682h782v682h74v-1434h-74v684h-782v-684h-74z" />
<glyph unicode="I" horiz-adv-x="421" d="M174 0v1434h74v-1434h-74z" />
<glyph unicode="J" horiz-adv-x="528" d="M35 -78q37 0 66.5 2t53.5 8t42.5 12t32.5 19t23.5 25t16.5 33.5t10.5 40t5.5 50t2.5 58t0.5 68.5v1196h71l2 -1217q0 -75 -4.5 -125.5t-17.5 -94t-35 -68.5t-59.5 -43t-88 -24.5t-122.5 -6.5v67z" />
<glyph unicode="K" horiz-adv-x="1040" d="M174 0v1434h74v-693h219l428 693h84l-453 -719l480 -715h-86l-453 674h-219v-674h-74z" />
<glyph unicode="L" horiz-adv-x="913" d="M174 0v1434h74v-1366h635v-68h-709z" />
<glyph unicode="M" horiz-adv-x="1572" d="M174 0v1434h148l464 -1323l465 1323h148v-1434h-74v1366h-22l-469 -1323h-95l-469 1323h-22v-1366h-74z" />
<glyph unicode="N" horiz-adv-x="1259" d="M174 0v1434h164l629 -1366h45v1366h73v-1434h-165l-629 1360h-43v-1360h-74z" />
<glyph unicode="O" horiz-adv-x="1282" d="M129 727q0 270 39 423t151 226q113 76 322 76q94 0 166.5 -15t126.5 -43t92.5 -74.5t63 -102t38.5 -134.5t19.5 -162t5.5 -194q0 -281 -43.5 -442t-165.5 -236q-110 -67 -303 -67q-93 0 -166 16.5t-127 45.5t-92.5 78t-63 106.5t-38.5 138.5t-19.5 165t-5.5 195zM207 727 q0 -90 2.5 -157t10.5 -135.5t22 -117t36 -94.5t54.5 -75.5t76.5 -52.5t101.5 -33.5t130.5 -10.5q146 0 229 41q52 25 89.5 67.5t59.5 95t35 129.5t17 155t4 188q0 104 -3.5 177t-14.5 146.5t-30.5 121.5t-51.5 91t-78 67.5t-109.5 38t-146.5 13.5q-145 0 -223 -34 q-55 -23 -93.5 -63t-61.5 -90t-35.5 -126t-16.5 -153t-4 -189z" />
<glyph unicode="P" horiz-adv-x="1126" d="M174 0v1434h440q222 0 328.5 -103.5t106.5 -331.5q0 -236 -111.5 -355.5t-323.5 -119.5h-366v-524h-74zM248 594h366q178 0 267.5 97.5t89.5 307.5q0 195 -89 280t-268 85h-366v-770z" />
<glyph unicode="Q" horiz-adv-x="1282" d="M129 727q0 270 39 423t151 226q113 76 322 76q94 0 166.5 -15t126.5 -43t92.5 -74.5t63 -102t38.5 -134.5t19.5 -162t5.5 -194q0 -281 -43.5 -442t-165.5 -236l-22 -12l159 -279l-63 -37l-164 287q-96 -26 -213 -26q-93 0 -166 16.5t-127 45.5t-92.5 78t-63 106.5 t-38.5 138.5t-19.5 165t-5.5 195zM207 727q0 -90 2.5 -157t10.5 -135.5t22 -117t36 -94.5t54.5 -75.5t76.5 -52.5t101.5 -33.5t130.5 -10.5q146 0 229 41q52 25 89.5 67.5t59.5 95t35 129.5t17 155t4 188q0 104 -3.5 177t-14.5 146.5t-30.5 121.5t-51.5 91t-78 67.5 t-109.5 38t-146.5 13.5q-145 0 -223 -34q-55 -23 -93.5 -63t-61.5 -90t-35.5 -126t-16.5 -153t-4 -189z" />
<glyph unicode="R" horiz-adv-x="1163" d="M174 0v1434h465q200 0 300.5 -105t100.5 -307q0 -81 -14 -145.5t-38 -109t-60 -78t-75 -53t-87 -32.5l311 -604h-86l-305 594h-438v-594h-74zM248 662h391q166 0 245 90t79 270q0 344 -324 344h-391v-704z" />
<glyph unicode="S" horiz-adv-x="1019" d="M106 1081q0 186 107 278.5t303 92.5q65 0 158.5 -9t153.5 -19l61 -9l-6 -63q-220 32 -367 32q-164 0 -248 -73.5t-84 -229.5q0 -65 16 -112.5t41.5 -78t73.5 -52.5t95 -34.5t122 -25.5q77 -14 133.5 -31t106.5 -44.5t80.5 -65.5t48 -93t17.5 -126q0 -210 -100 -323 t-300 -113q-64 0 -164.5 8t-169.5 16l-69 8l8 66q252 -31 395 -31q164 0 243 94.5t79 268.5q0 74 -21 126t-64.5 85.5t-98.5 53t-136 32.5q-83 14 -142.5 30.5t-114 44.5t-87 67t-51.5 96.5t-19 133.5z" />
<glyph unicode="T" horiz-adv-x="985" d="M29 1366v68h927v-68h-421v-1366h-74v1366h-432z" />
<glyph unicode="U" horiz-adv-x="1220" d="M166 403v1031h74v-1031q0 -187 91 -270.5t279 -83.5q189 0 280 83t91 271v1031h74v-1031q0 -421 -445 -421q-444 0 -444 421z" />
<glyph unicode="V" horiz-adv-x="1095" d="M59 1434h74l365 -1366h106l357 1366h73l-370 -1434h-228z" />
<glyph unicode="W" horiz-adv-x="1656" d="M78 1434h69l279 -1366h70l290 1345h78l301 -1345h70l270 1366h70l-281 -1434h-186l-283 1313l-274 -1313h-184z" />
<glyph unicode="X" horiz-adv-x="1054" d="M49 0l434 709l-434 725h88l391 -662l390 662h86l-424 -723l424 -711h-86l-388 653l-397 -653h-84z" />
<glyph unicode="Y" horiz-adv-x="1013" d="M35 1434h84l389 -734l383 734h84l-430 -820v-614h-74v614z" />
<glyph unicode="Z" horiz-adv-x="1026" d="M88 -2v147l778 1168v53h-778v68h850v-150l-780 -1169v-49h780v-68h-850z" />
<glyph unicode="[" horiz-adv-x="602" d="M164 -250v1780h350v-68h-283v-1644h283v-68h-350z" />
<glyph unicode="\" horiz-adv-x="854" d="M61 1407l72 29l658 -1489l-72 -29z" />
<glyph unicode="]" horiz-adv-x="602" d="M88 -182h283v1644h-283v68h350v-1780h-350v68z" />
<glyph unicode="^" d="M156 662l368 690h74l387 -690h-82l-342 616l-323 -616h-82z" />
<glyph unicode="_" horiz-adv-x="1310" d="M197 -162h917v-78h-917v78z" />
<glyph unicode="`" horiz-adv-x="1060" d="M293 1436l29 59l370 -197l-24 -51z" />
<glyph unicode="a" horiz-adv-x="985" d="M115 485q0 136 17.5 232t61.5 172.5t125 114.5t201 38q41 0 119.5 -8t136.5 -16l58 -8v-785q0 -55 3 -111t6 -85l3 -29l-74 -4q-10 113 -10 209q-5 -9 -15 -24t-43.5 -53.5t-69.5 -68t-92.5 -53.5t-113.5 -24q-172 0 -242.5 123.5t-70.5 379.5zM190 485q0 -82 6.5 -145 t23 -120t44 -93.5t71 -58t101.5 -21.5q53 0 106 27t90.5 65.5t68 77t45.5 65.5l16 27v643q-166 25 -227 25q-85 0 -146 -21.5t-99.5 -60t-60.5 -102t-30.5 -135.5t-8.5 -173z" />
<glyph unicode="b" horiz-adv-x="987" d="M152 2v1493h71v-631q6 7 17 19t46 43t71 54.5t89 42.5t103 19q95 0 159.5 -35.5t99.5 -105.5t49.5 -157.5t14.5 -208.5q0 -285 -88.5 -419t-308.5 -134q-63 0 -143.5 5t-129.5 10zM223 63q195 -16 258 -16q92 0 154 31t97.5 95t50 151t14.5 211q0 219 -57 330.5 t-189 111.5q-49 0 -100.5 -20t-90.5 -48.5t-71 -57.5t-49 -49l-17 -20v-719z" />
<glyph unicode="c" horiz-adv-x="813" d="M115 535q0 270 91.5 388.5t305.5 118.5q33 0 87 -5t92 -10l38 -5l-4 -66q-139 21 -213 21q-179 0 -250.5 -105t-71.5 -337q0 -70 2.5 -121t11 -105t23 -91.5t38.5 -71.5t57.5 -54.5t81 -32.5t108.5 -12q33 0 86 4.5t90 9.5l37 5l4 -66q-143 -18 -217 -18q-73 0 -130 12.5 t-99 35t-71.5 59.5t-48.5 79.5t-29.5 102.5t-14.5 121.5t-4 142.5z" />
<glyph unicode="d" horiz-adv-x="985" d="M115 496q0 276 92 411t307 135q53 0 115 -6t97 -12l36 -6v477h72v-1495h-72v190q-5 -8 -15 -22.5t-44 -50t-70 -63t-92 -50t-113 -22.5q-73 0 -127.5 24.5t-89.5 67.5t-57 109t-30.5 141t-8.5 172zM190 496q0 -76 5.5 -135.5t21.5 -120.5t43 -101.5t73.5 -66t108.5 -25.5 q52 0 103.5 25t89 61t67.5 72t45 61l15 25v661q-133 25 -248 25q-94 0 -157.5 -31t-100 -95t-51.5 -149.5t-15 -205.5z" />
<glyph unicode="e" horiz-adv-x="911" d="M113 510q0 270 99.5 400t305.5 130q136 0 218.5 -60.5t82.5 -182.5q0 -174 -114 -242t-386 -68h-131v-26q0 -201 66 -307.5t211 -106.5q65 0 142.5 11.5t122.5 23.5l44 12l10 -59q-16 -6 -44 -15t-112 -23.5t-165 -14.5q-186 0 -268 123.5t-82 404.5zM188 553h129 q239 0 333.5 51t94.5 193q0 178 -229 178q-169 0 -247.5 -105.5t-80.5 -316.5z" />
<glyph unicode="f" horiz-adv-x="614" d="M59 958v66h134v121q0 203 55.5 285.5t187.5 82.5q31 0 71 -4.5t65 -8.5l24 -5v-65q-105 18 -160 18q-96 0 -134 -69t-38 -236v-119h309v-66h-309v-958l-6 -471h-65v1429h-134z" />
<glyph unicode="g" horiz-adv-x="948" d="M100 -209q0 90 62.5 180.5t140.5 137.5q-27 22 -36 45.5t-9 60.5q0 29 14 70t28 67l13 27q-196 54 -196 321q0 158 84.5 250t238.5 92q44 0 87.5 -6t64.5 -12l22 -6l291 4v-66h-223q44 -35 71 -105.5t27 -150.5q0 -161 -89 -248t-255 -87l-55 4q-49 -95 -49 -152 q0 -34 13.5 -51.5t61.5 -28t142 -10.5q84 0 142.5 -11t105 -39t69.5 -80t23 -130q0 -161 -112.5 -258.5t-301.5 -97.5q-69 0 -120.5 6t-102 23.5t-82 48t-51 81.5t-19.5 121zM174 -209q0 -65 20.5 -108.5t62.5 -66t93.5 -31.5t124.5 -9q158 0 249 76.5t91 214.5 q0 51 -13.5 86t-34.5 56t-58.5 32t-74.5 14.5t-93 3.5q-103 0 -166 17q-77 -33 -139 -115t-62 -170zM190 700q0 -266 246 -266q143 0 207 68.5t64 197.5q0 134 -63 205.5t-204 71.5q-125 0 -187.5 -74.5t-62.5 -202.5z" />
<glyph unicode="h" horiz-adv-x="999" d="M152 0v1495h71v-664q6 9 17.5 23t47 50.5t72.5 64t90.5 50.5t104.5 23q155 0 228 -99t73 -302v-641h-72v612q0 187 -54.5 276t-178.5 89q-47 0 -98 -24.5t-90.5 -59t-72 -69t-50.5 -58.5l-17 -25v-741h-71z" />
<glyph unicode="i" horiz-adv-x="374" d="M150 1311v119h75v-119h-75zM152 0v1024h71v-1024h-71z" />
<glyph unicode="j" horiz-adv-x="374" d="M-98 -428q48 29 80.5 50t60.5 44.5t44.5 40.5t30 43.5t19.5 46t10 55.5t4.5 65.5t0.5 82.5v1024h71v-1024q0 -76 -2.5 -122t-14.5 -92.5t-28.5 -74.5t-52.5 -63t-78 -64t-113 -73zM150 1311v121h75v-121h-75z" />
<glyph unicode="k" horiz-adv-x="890" d="M152 0v1495h71v-903h168l354 432h89l-379 -463l383 -561h-86l-361 526h-168v-526h-71z" />
<glyph unicode="l" horiz-adv-x="399" d="M164 0v1495h72v-1495h-72z" />
<glyph unicode="m" horiz-adv-x="1576" d="M152 0v1024h71v-190q6 8 17.5 22.5t48 50t73 63t88 50t99.5 22.5q60 0 109 -20t76.5 -49t46 -58t24.5 -49l6 -20q6 8 16.5 21t44.5 47t69.5 60t88 47t103.5 21q156 0 228.5 -102t72.5 -319v-621h-72v612q0 187 -55 276t-179 89q-46 0 -93.5 -20t-82.5 -48.5t-63.5 -57.5 t-42.5 -49l-15 -20q9 -65 9 -161v-621h-72v612q0 365 -223 365q-43 0 -92 -24.5t-88.5 -59.5t-72.5 -70t-51 -59l-18 -25v-739h-71z" />
<glyph unicode="n" horiz-adv-x="999" d="M152 0v1024h71v-190q6 8 17.5 22.5t47 50t72.5 63t90.5 50t104.5 22.5q155 0 228 -99t73 -302v-641h-72v612q0 187 -54.5 276t-178.5 89q-47 0 -98 -24.5t-90.5 -59.5t-72 -70t-50.5 -59l-17 -25v-739h-71z" />
<glyph unicode="o" horiz-adv-x="995" d="M117 530q0 108 10.5 186t36.5 142t69 103t109 60t156 21t156 -21t109 -60t69 -103t36.5 -142t10.5 -186q0 -72 -2 -122.5t-8 -107.5t-17.5 -95t-30.5 -77.5t-47 -63.5t-67 -44t-91 -29t-118 -9t-118 9t-91 29t-67 44t-47 63.5t-30.5 77.5t-17.5 95t-8 107.5t-2 122.5z M190 530q0 -59 1 -97.5t4 -86t9 -77.5t17 -65t27 -56.5t39 -42.5t53 -32.5t69.5 -18.5t88.5 -7q44 0 80.5 5t65 16.5t51 25t39 36.5t28.5 44t20 54.5t12.5 62t7 72.5t3 79t0.5 88q0 246 -65 346.5t-242 100.5t-242.5 -100.5t-65.5 -346.5z" />
<glyph unicode="p" horiz-adv-x="980" d="M152 -471v1495h71v-193q5 9 15 23t43 50.5t68.5 64t89 50.5t106.5 23q78 0 135.5 -25.5t93 -68.5t57 -110t29.5 -141t8 -171q0 -274 -93 -409t-314 -135q-48 0 -107.5 6t-95.5 12l-35 6v-477h-71zM223 72q132 -25 238 -25q97 0 163 30.5t103 94.5t52.5 148.5t15.5 205.5 q0 75 -5.5 135.5t-21 121.5t-42 102t-71 66.5t-104.5 25.5q-53 0 -106 -25t-91 -61t-69 -72t-47 -61l-15 -25v-661z" />
<glyph unicode="q" horiz-adv-x="983" d="M115 489q0 291 94 422t315 131q41 0 117.5 -8t132.5 -16l57 -8v-1477h-71v653q-5 -8 -15.5 -22t-44 -49t-69.5 -62t-91 -49t-110 -22q-78 0 -135.5 29t-91.5 75t-54 115t-27 136.5t-7 151.5zM188 489q0 -83 6.5 -147t24 -121t46 -94t73.5 -58.5t106 -21.5q46 0 96 24.5 t87.5 59t68.5 69t48 58.5l16 25v669q-160 25 -221 25q-131 0 -205.5 -44t-110 -150t-35.5 -294z" />
<glyph unicode="r" horiz-adv-x="622" d="M152 0v1024h71v-164q7 5 19.5 14.5t52.5 35t80.5 47.5t98 46.5t110.5 38.5v-79q-70 -17 -160.5 -59t-145.5 -76l-55 -33v-795h-71z" />
<glyph unicode="s" horiz-adv-x="866" d="M100 766q0 77 27 132.5t73.5 86t100 44t115.5 13.5q68 0 148.5 -5t127.5 -10l47 -5l-4 -66q-186 21 -319 21q-104 0 -173 -50t-69 -157q0 -100 59.5 -140.5t198.5 -64.5q53 -9 83 -15t71.5 -17.5t64.5 -23.5t49.5 -31.5t40 -44t22.5 -59t9 -77.5q0 -174 -90 -244.5 t-266 -70.5q-48 0 -125.5 7.5t-130.5 14.5l-54 8l9 68q201 -33 299 -33q145 0 214.5 54t69.5 190q0 45 -14 78.5t-35 53t-59 34t-71 21.5t-87 17l-18 3q-51 9 -84.5 17t-73.5 22t-65 32.5t-47.5 45t-33 64.5t-10.5 87z" />
<glyph unicode="t" horiz-adv-x="655" d="M59 958v66h152v332h72v-332h329v-66h-329v-686q0 -225 176 -225q24 0 67 3.5t74 7.5l31 3l4 -63q-110 -16 -178 -16q-132 0 -189 74t-57 214v688h-152z" />
<glyph unicode="u" horiz-adv-x="999" d="M143 403v621h72v-612q0 -187 55 -276t179 -89q47 0 98 24.5t90 59.5t71.5 70t49.5 59l18 25v739h72v-1024h-72v190q-6 -8 -17.5 -22.5t-47 -50t-72.5 -63t-90.5 -50t-104.5 -22.5q-159 0 -230 101.5t-71 319.5z" />
<glyph unicode="v" horiz-adv-x="903" d="M61 1024h78l271 -958h84l270 958h78l-293 -1024h-195z" />
<glyph unicode="w" horiz-adv-x="1454" d="M72 1024h75l236 -958h39l266 938h78l266 -938h39l236 958h75l-254 -1024h-149l-252 909l-252 -909h-149z" />
<glyph unicode="x" horiz-adv-x="831" d="M57 1024h78l283 -459l280 459h76l-319 -514l317 -510h-78l-280 451l-277 -451h-76l314 508z" />
<glyph unicode="y" horiz-adv-x="905" d="M63 1024h76l271 -958h82l274 958h78l-434 -1495h-74l139 471h-119z" />
<glyph unicode="z" horiz-adv-x="866" d="M84 0v66l610 892h-610v66h698v-63l-612 -895h612v-66h-698z" />
<glyph unicode="{" horiz-adv-x="677" d="M61 598v72q24 3 54.5 15.5t65 36.5t58 67t23.5 96q0 46 -7 151.5t-7 132.5q0 187 79.5 276t260.5 89l4 -74q-157 0 -217 -70t-60 -221q0 -25 7.5 -118t7.5 -123q0 -91 -20.5 -147.5t-58 -87.5t-104.5 -56q93 -33 138 -97t45 -171q0 -26 -7.5 -144.5t-7.5 -152.5 q0 -124 77.5 -187t199.5 -63l-4 -74q-157 0 -248.5 81t-91.5 243q0 31 7 149t7 141q0 46 -12 83t-28.5 58.5t-41.5 39.5t-44 25.5t-43 16.5t-32 13z" />
<glyph unicode="|" horiz-adv-x="395" d="M162 -471v1966h71v-1966h-71z" />
<glyph unicode="}" horiz-adv-x="677" d="M86 -178q157 0 216.5 70t59.5 221q0 25 -7 118t-7 123q0 133 41 193.5t141 97.5q-92 33 -137 97t-45 171q0 26 7 144.5t7 152.5q0 124 -77 187t-199 63l4 74q157 0 248.5 -81t91.5 -243q0 -31 -7 -149t-7 -141q0 -46 12 -83t28.5 -58.5t41 -39.5t43.5 -25.5t43 -16.5 t32 -13v-72q-18 -2 -41.5 -10t-52 -25t-51.5 -40t-39 -60t-16 -80q0 -46 7 -151.5t7 -132.5q0 -187 -79.5 -276t-260.5 -89z" />
<glyph unicode="~" d="M143 543q14 12 38 30.5t85.5 49t106.5 30.5q49 0 131 -37.5t158.5 -74.5t113.5 -37q33 0 85 26.5t88 53.5l36 26l23 -63q-5 -5 -14.5 -12.5t-37 -27t-54 -34.5t-61 -27t-63.5 -12q-50 0 -131.5 37.5t-158 75t-113.5 37.5q-33 0 -85 -27t-88 -53l-36 -27z" />
<glyph unicode="&#xa1;" horiz-adv-x="389" d="M158 -410l6 1002h63l4 -1002h-73zM158 854v170h73v-170h-73z" />
<glyph unicode="&#xa2;" d="M244 506q0 224 84.5 325t249.5 109v268h69v-270q38 -2 94 -7t93 -9l36 -4l-4 -74q-192 20 -266 20q-155 0 -218 -83t-63 -275q0 -60 4 -102.5t15 -84.5t31.5 -69.5t53.5 -49.5t81.5 -32t113.5 -10q33 0 96 4.5t110 9.5l46 4l4 -70q-143 -16 -225 -18v-260h-69v260 q-85 0 -146.5 22t-97.5 57.5t-57 92t-28 113.5t-7 133z" />
<glyph unicode="&#xa3;" d="M166 0v68h196v698h-153v68h153v122q0 57 1 92.5t4.5 82.5t11 75.5t20 62t32 53t47 37t65 25t84.5 7.5q33 0 100.5 -5.5t118.5 -11.5l51 -6v-68q-196 23 -270 23q-31 0 -56.5 -6t-44.5 -15t-33 -27t-23.5 -33.5t-16 -44.5t-10 -49.5t-5 -59t-2 -62.5t-0.5 -70v-122h443 v-68h-443v-698h348l160 32l12 -63l-155 -37h-635z" />
<glyph unicode="&#xa4;" d="M158 154l145 143q-78 95 -78 219t78 219l-145 144l53 53l143 -146q95 78 219.5 78t219.5 -78l143 146l53 -53l-145 -144q78 -95 78 -219t-78 -219l145 -143l-53 -54l-143 146q-95 -78 -219.5 -78t-219.5 78l-143 -146zM301 517q0 -115 78 -195q79 -78 194.5 -78t194.5 78 q78 80 78 195t-78 194q-79 78 -194.5 78t-194.5 -78q-78 -79 -78 -194z" />
<glyph unicode="&#xa5;" d="M98 1354h78l399 -652l394 652h80l-369 -606h321v-70h-360l-29 -43v-193h389v-69h-389v-373h-73v373h-394v69h394v193l-27 43h-367v70h324z" />
<glyph unicode="&#xa6;" horiz-adv-x="403" d="M166 299h72v-770h-72v770zM166 725v770h72v-770h-72z" />
<glyph unicode="&#xa7;" horiz-adv-x="933" d="M115 580q0 37 10.5 75t25 66.5t29 52t24.5 35.5l11 12q-30 30 -45.5 51.5t-28 68t-12.5 114.5q0 61 19 112.5t58 93t107.5 65.5t159.5 24q55 0 130 -7t123 -13l48 -7l-4 -74q-205 27 -297 27q-270 0 -270 -219q0 -52 11 -89.5t31 -63t57 -43.5t78.5 -29.5t106.5 -22.5 q61 -11 104 -23t87 -34t70.5 -51t43.5 -74.5t17 -104.5q0 -54 -18 -118t-36 -101l-18 -37q66 -56 66 -190q0 -159 -86.5 -242.5t-247.5 -83.5q-52 0 -133.5 7t-137.5 13l-55 7l7 73q213 -28 319 -28q129 0 197.5 62.5t68.5 189.5q0 46 -12.5 79t-32.5 54t-59 36t-76 23 t-100 17q-175 26 -257.5 92t-82.5 205zM182 584q0 -107 67 -155t220 -73q161 -25 213 -57q7 12 16.5 32t26 77.5t16.5 107.5q0 48 -13 83.5t-30.5 56.5t-52.5 36.5t-61 22.5t-74 16q-201 39 -242 62q-10 -12 -24 -33t-38 -76.5t-24 -99.5z" />
<glyph unicode="&#xa8;" horiz-adv-x="1619" d="M225 1296v134h60v-134h-60zM584 1296v134h55v-134h-55z" />
<glyph unicode="&#xa9;" horiz-adv-x="1300" d="M127 889q0 149 67 274t187.5 198t267.5 73q148 0 268.5 -73t188.5 -198t68 -274t-68 -273.5t-188.5 -197t-268.5 -72.5t-268 72.5t-187 197t-67 273.5zM193 889q0 -200 130 -338.5t326 -138.5t327.5 138.5t131.5 338.5t-131.5 339.5t-327.5 139.5q-129 0 -234 -64.5 t-163.5 -174t-58.5 -240.5zM426 887q0 75 9.5 128.5t33 98t68.5 66.5t112 22q35 0 73 -3.5t58 -6.5l21 -4l-2 -66q-84 15 -150 15q-42 0 -71 -11.5t-46 -30t-26 -53t-11.5 -68.5t-2.5 -87q0 -128 32.5 -187t124.5 -59q25 0 62.5 4t62.5 8l25 4l2 -65q-89 -17 -152 -17 q-66 0 -110.5 22t-68.5 65t-34 97t-10 128z" />
<glyph unicode="&#xaa;" horiz-adv-x="735" d="M121 954q0 74 37.5 112t115.5 44l209 14v47q0 64 -25 90.5t-81 26.5q-31 0 -84.5 -3.5t-90.5 -6.5l-38 -4l-4 59q141 17 217 17q89 0 129.5 -42.5t40.5 -138.5v-274q21 -36 76 -47l-5 -57q-38 1 -61.5 11t-48.5 34q-129 -45 -244 -45q-64 0 -103.5 44.5t-39.5 118.5z M188 950q0 -96 82 -96q41 0 94 9t86 19l33 9v174l-198 -12q-52 -3 -74.5 -27.5t-22.5 -75.5z" />
<glyph unicode="&#xab;" horiz-adv-x="954" d="M92 496v43l320 262v-70l-265 -213l265 -233v-70zM489 496v43l320 262v-70l-264 -213l264 -233v-70z" />
<glyph unicode="&#xac;" d="M145 610v70h865v-422h-74v352h-791z" />
<glyph unicode="&#xad;" horiz-adv-x="788" d="M145 516v70h498v-70h-498z" />
<glyph unicode="&#xae;" horiz-adv-x="1300" d="M127 889q0 149 67 274t187.5 198t267.5 73q148 0 268.5 -73t188.5 -198t68 -274t-68 -273.5t-188.5 -197t-268.5 -72.5t-268 72.5t-187 197t-67 273.5zM193 889q0 -200 130 -338.5t326 -138.5t327.5 138.5t131.5 338.5t-131.5 339.5t-327.5 139.5q-129 0 -234 -64.5 t-163.5 -174t-58.5 -240.5zM440 586v604h191q121 0 176 -40.5t55 -141.5q0 -75 -28 -118.5t-93 -60.5l133 -243h-73l-129 237h-166v-237h-66zM506 887h164q69 0 98 26.5t29 94.5q0 67 -38.5 92.5t-125.5 25.5h-127v-239z" />
<glyph unicode="&#xaf;" horiz-adv-x="868" d="M172 1325v53h516v-53h-516z" />
<glyph unicode="&#xb0;" d="M295 1174q0 124 76.5 201t201.5 77t202 -77t77 -201t-77 -200.5t-202 -76.5t-201.5 76.5t-76.5 200.5zM365 1174q0 -96 56.5 -153.5t151.5 -57.5t154 58t59 153t-59 153.5t-154 58.5t-151.5 -58t-56.5 -154z" />
<glyph unicode="&#xb1;" d="M121 102v70h905v-70h-905zM121 631v69h414v283h73v-283h418v-69h-418v-295h-73v295h-414z" />
<glyph unicode="&#xb2;" horiz-adv-x="573" d="M76 979v70l200 213q38 40 57 63.5t36.5 62t17.5 76.5q0 53 -32 78t-85 25q-31 0 -77 -6.5t-77 -12.5l-30 -6l-4 68q104 26 190 26q189 0 189 -174q0 -66 -32.5 -121t-100.5 -127l-156 -165h303v-70h-399z" />
<glyph unicode="&#xb3;" horiz-adv-x="573" d="M76 983l6 66q111 -19 213 -19q65 0 97 32t32 87q0 125 -123 125h-133v69h133q36 0 70.5 39.5t34.5 90.5q0 48 -27 71t-92 23q-42 0 -91 -4.5t-78 -9.5l-28 -5l-6 66q109 22 201 22q101 0 148.5 -39t47.5 -124q0 -40 -13 -72.5t-33 -50.5t-31.5 -25.5t-20.5 -11.5 q62 -17 89.5 -49t27.5 -113q0 -190 -205 -190q-44 0 -99 5.5t-88 11.5z" />
<glyph unicode="&#xb4;" horiz-adv-x="1099" d="M287 1298l372 197l27 -59l-373 -189z" />
<glyph unicode="&#xb5;" d="M221 -471v1495h72v-612q0 -187 54.5 -276t178.5 -89q47 0 98 24.5t90.5 59.5t72 70t49.5 59l18 25v739h72v-1024h-72v190q-6 -8 -17.5 -22.5t-47 -50t-72.5 -63t-90.5 -50t-104.5 -22.5q-157 0 -229 100v-553h-72z" />
<glyph unicode="&#xb6;" horiz-adv-x="1126" d="M74 1053q0 171 91 276t265 105h633v-74h-186v-1360h-70v1360h-295v-1360h-70v715q-84 0 -155 29.5t-116.5 78t-71 108.5t-25.5 122z" />
<glyph unicode="&#xb7;" horiz-adv-x="368" d="M145 553v170h78v-170h-78z" />
<glyph unicode="&#xb8;" horiz-adv-x="1619" d="M764 -399l4 63q87 -8 150 -8q94 0 94 90q0 49 -25.5 65.5t-68.5 16.5h-103v182h64v-119h16q41 0 71.5 -5.5t57.5 -20.5t41 -45t14 -74q0 -154 -159 -154q-37 0 -76 2t-60 4z" />
<glyph unicode="&#xb9;" horiz-adv-x="573" d="M96 1481l203 137h74v-639h-74v559l-168 -115z" />
<glyph unicode="&#xba;" horiz-adv-x="694" d="M121 1069q0 279 229 279q155 0 201 -121q22 -60 22 -158q0 -285 -223 -285q-193 0 -223 197q-6 40 -6 88zM195 1069q0 -47 6 -82q12 -70 47 -99.5t102 -29.5q84 0 119 48t35 163q0 45 -6 80q-12 68 -46.5 96.5t-101.5 28.5q-84 0 -119.5 -46t-35.5 -159z" />
<glyph unicode="&#xbb;" horiz-adv-x="956" d="M145 231v70l265 213l-265 234v69l320 -280v-43zM545 231v70l264 213l-264 234v69l319 -280v-43z" />
<glyph unicode="&#xbc;" horiz-adv-x="1062" d="M61 1481l203 137h74v-639h-74v559l-168 -115zM168 25l537 1409l67 -27l-536 -1409zM545 117v65l182 457h78l-178 -453h217v179h74v-179h75v-69h-75v-117h-74v117h-299z" />
<glyph unicode="&#xbd;" horiz-adv-x="1097" d="M61 1481l203 137h74v-639h-74v559l-168 -115zM168 25l537 1409l67 -27l-536 -1409zM608 0v70l201 213q38 40 57 63.5t36.5 62t17.5 76.5q0 53 -32 78t-85 25q-31 0 -77.5 -6t-77.5 -12l-30 -7l-4 68q105 26 191 26q188 0 188 -174q0 -66 -32 -120.5t-101 -126.5 l-155 -166h303v-70h-400z" />
<glyph unicode="&#xbe;" horiz-adv-x="1122" d="M96 983l6 66q111 -19 213 -19q65 0 97 32t32 87q0 125 -122 125h-134v69h134q36 0 70 39.5t34 90.5q0 48 -27 71t-92 23q-42 0 -91 -4.5t-77 -9.5l-28 -5l-7 66q109 22 201 22q101 0 149 -39t48 -124q0 -40 -12.5 -72t-32.5 -50t-31.5 -25.5t-22.5 -12.5q61 -17 89 -49.5 t28 -112.5q0 -190 -205 -190q-44 0 -99 5.5t-88 11.5zM233 25l537 1409l68 -27l-537 -1409zM610 117v65l183 457h77l-178 -453h217v179h74v-179h76v-69h-76v-117h-74v117h-299z" />
<glyph unicode="&#xbf;" horiz-adv-x="806" d="M76 -102q0 85 41.5 159t171.5 228q76 89 110.5 149.5t34.5 124.5v82h68q6 -53 6 -82q0 -80 -33.5 -140t-130.5 -181q-118 -146 -154 -207.5t-36 -132.5q0 -149 64 -201.5t224 -52.5q55 0 127.5 12t118.5 24l45 11l10 -68q-178 -49 -301 -49q-191 0 -278.5 72.5 t-87.5 251.5zM434 854v170h78v-170h-78z" />
<glyph unicode="&#xc0;" horiz-adv-x="1134" d="M57 0l418 1434h184l418 -1434h-73l-130 440h-614l-129 -440h-74zM279 508h575l-248 856h-78zM285 1823l28 59l371 -199l-25 -49z" />
<glyph unicode="&#xc1;" horiz-adv-x="1134" d="M57 0l418 1434h184l418 -1434h-73l-130 440h-614l-129 -440h-74zM279 508h575l-248 856h-78zM449 1683l372 199l29 -59l-373 -189z" />
<glyph unicode="&#xc2;" horiz-adv-x="1134" d="M57 0l418 1434h184l418 -1434h-73l-130 440h-614l-129 -440h-74zM279 508h575l-248 856h-78zM287 1645l262 262h31l264 -262h-78l-201 190l-200 -190h-78z" />
<glyph unicode="&#xc3;" horiz-adv-x="1134" d="M57 0l418 1434h184l418 -1434h-73l-130 440h-614l-129 -440h-74zM254 1751q13 14 34 34t68.5 53.5t73.5 33.5q45 0 162 -64.5t145 -64.5q16 0 50 25.5t61 51.5l26 25l19 -49q-12 -13 -31 -32.5t-62 -52t-67 -32.5q-44 0 -161.5 65.5t-145.5 65.5q-19 0 -58 -27.5 t-68 -54.5l-30 -28zM279 508h575l-248 856h-78z" />
<glyph unicode="&#xc4;" horiz-adv-x="1134" d="M57 0l418 1434h184l418 -1434h-73l-130 440h-614l-129 -440h-74zM279 508h575l-248 856h-78zM352 1702v135h58v-135h-58zM721 1702v135h55v-135h-55z" />
<glyph unicode="&#xc5;" horiz-adv-x="1134" d="M57 0l406 1391q-72 44 -72 155q0 89 45.5 136t130.5 47q83 0 129.5 -47.5t46.5 -135.5q0 -107 -71 -153l405 -1393h-73l-130 440h-614l-129 -440h-74zM279 508h575l-248 856h-78zM442 1546q0 -87 70 -112h109q69 25 69 112q0 60 -32 91.5t-91 31.5t-92 -32t-33 -91z" />
<glyph unicode="&#xc6;" horiz-adv-x="1619" d="M57 0l418 1434h1049v-68h-699v-596h582v-68h-582v-634h699v-68h-772v440h-494l-129 -440h-72zM274 506h478v860h-228z" />
<glyph unicode="&#xc7;" horiz-adv-x="1032" d="M127 711q0 113 8 203.5t27 177.5t53.5 150t85.5 112t126 73.5t171 24.5q82 0 169 -10t133 -20l46 -11l-6 -70q-184 41 -342 41q-72 0 -130 -17.5t-98.5 -48t-70.5 -78.5t-48 -101.5t-28.5 -125.5t-14 -141.5t-3.5 -158.5q0 -88 4 -157.5t15 -140t29.5 -123.5t48 -99.5 t70.5 -76t98 -46.5t128 -17q61 0 146.5 10.5t140.5 20.5l55 10l6 -69q-186 -39 -338 -41v-91h17q41 0 71.5 -5.5t57.5 -20.5t41 -45t14 -74q0 -154 -160 -154q-37 0 -76 2t-59 4l-20 3l4 63q86 -8 149 -8q94 0 94 90q0 49 -25.5 65.5t-68.5 16.5h-102v156q-101 7 -175.5 45 t-120.5 98t-73.5 152t-38 194t-10.5 238z" />
<glyph unicode="&#xc8;" horiz-adv-x="1044" d="M174 0v1434h772v-68h-698v-596h583v-68h-583v-634h698v-68h-772zM336 1823l29 59l370 -199l-24 -49z" />
<glyph unicode="&#xc9;" horiz-adv-x="1044" d="M174 0v1434h772v-68h-698v-596h583v-68h-583v-634h698v-68h-772zM393 1683l373 199l29 -59l-373 -189z" />
<glyph unicode="&#xca;" horiz-adv-x="1044" d="M174 0v1434h772v-68h-698v-596h583v-68h-583v-634h698v-68h-772zM283 1645l262 262h30l265 -262h-78l-201 190l-201 -190h-77z" />
<glyph unicode="&#xcb;" horiz-adv-x="1044" d="M174 0v1434h772v-68h-698v-596h583v-68h-583v-634h698v-68h-772zM367 1702v135h57v-135h-57zM735 1702v135h56v-135h-56z" />
<glyph unicode="&#xcc;" horiz-adv-x="421" d="M-104 1823l28 59l371 -199l-25 -49zM174 0v1434h74v-1434h-74z" />
<glyph unicode="&#xcd;" horiz-adv-x="421" d="M106 1683l373 199l29 -59l-373 -189zM174 0v1434h74v-1434h-74z" />
<glyph unicode="&#xce;" horiz-adv-x="421" d="M-70 1634l263 262h30l264 -262h-77l-201 191l-201 -191h-78zM174 0v1434h74v-1434h-74z" />
<glyph unicode="&#xcf;" horiz-adv-x="421" d="M2 1702v135h57v-135h-57zM174 0v1434h74v-1434h-74zM371 1702v135h55v-135h-55z" />
<glyph unicode="&#xd0;" horiz-adv-x="1245" d="M25 680v78h157v676h484q241 0 346.5 -164.5t105.5 -532.5q0 -190 -23 -323.5t-75.5 -228.5t-139.5 -140t-214 -45h-484v680h-157zM256 70h410q106 0 179 43.5t115.5 131.5t61 207t18.5 285q0 331 -82.5 479t-291.5 148h-410v-606h328v-78h-328v-610z" />
<glyph unicode="&#xd1;" horiz-adv-x="1259" d="M174 0v1434h164l629 -1366h45v1366h73v-1434h-165l-629 1360h-43v-1360h-74zM317 1747q13 14 34.5 34t69 53.5t73.5 33.5q45 0 162 -64.5t145 -64.5q16 0 50 25.5t61 51.5l26 25l18 -49q-12 -13 -31 -32.5t-61.5 -52t-66.5 -32.5q-44 0 -162 65.5t-146 65.5 q-19 0 -58 -27.5t-68 -54.5l-29 -28z" />
<glyph unicode="&#xd2;" horiz-adv-x="1282" d="M129 727q0 270 39 423t151 226q113 76 322 76q94 0 166.5 -15t126.5 -43t92.5 -74.5t63 -102t38.5 -134.5t19.5 -162t5.5 -194q0 -281 -43.5 -442t-165.5 -236q-110 -67 -303 -67q-93 0 -166 16.5t-127 45.5t-92.5 78t-63 106.5t-38.5 138.5t-19.5 165t-5.5 195zM207 727 q0 -90 2.5 -157t10.5 -135.5t22 -117t36 -94.5t54.5 -75.5t76.5 -52.5t101.5 -33.5t130.5 -10.5q146 0 229 41q52 25 89.5 67.5t59.5 95t35 129.5t17 155t4 188q0 104 -3.5 177t-14.5 146.5t-30.5 121.5t-51.5 91t-78 67.5t-109.5 38t-146.5 13.5q-145 0 -223 -34 q-55 -23 -93.5 -63t-61.5 -90t-35.5 -126t-16.5 -153t-4 -189zM401 1823l29 59l371 -199l-25 -49z" />
<glyph unicode="&#xd3;" horiz-adv-x="1282" d="M129 727q0 270 39 423t151 226q113 76 322 76q94 0 166.5 -15t126.5 -43t92.5 -74.5t63 -102t38.5 -134.5t19.5 -162t5.5 -194q0 -281 -43.5 -442t-165.5 -236q-110 -67 -303 -67q-93 0 -166 16.5t-127 45.5t-92.5 78t-63 106.5t-38.5 138.5t-19.5 165t-5.5 195zM207 727 q0 -90 2.5 -157t10.5 -135.5t22 -117t36 -94.5t54.5 -75.5t76.5 -52.5t101.5 -33.5t130.5 -10.5q146 0 229 41q52 25 89.5 67.5t59.5 95t35 129.5t17 155t4 188q0 104 -3.5 177t-14.5 146.5t-30.5 121.5t-51.5 91t-78 67.5t-109.5 38t-146.5 13.5q-145 0 -223 -34 q-55 -23 -93.5 -63t-61.5 -90t-35.5 -126t-16.5 -153t-4 -189zM502 1683l372 199l29 -59l-373 -189z" />
<glyph unicode="&#xd4;" horiz-adv-x="1282" d="M129 727q0 270 39 423t151 226q113 76 322 76q94 0 166.5 -15t126.5 -43t92.5 -74.5t63 -102t38.5 -134.5t19.5 -162t5.5 -194q0 -281 -43.5 -442t-165.5 -236q-110 -67 -303 -67q-93 0 -166 16.5t-127 45.5t-92.5 78t-63 106.5t-38.5 138.5t-19.5 165t-5.5 195zM207 727 q0 -90 2.5 -157t10.5 -135.5t22 -117t36 -94.5t54.5 -75.5t76.5 -52.5t101.5 -33.5t130.5 -10.5q146 0 229 41q52 25 89.5 67.5t59.5 95t35 129.5t17 155t4 188q0 104 -3.5 177t-14.5 146.5t-30.5 121.5t-51.5 91t-78 67.5t-109.5 38t-146.5 13.5q-145 0 -223 -34 q-55 -23 -93.5 -63t-61.5 -90t-35.5 -126t-16.5 -153t-4 -189zM362 1645l263 262h30l265 -262h-78l-201 190l-201 -190h-78z" />
<glyph unicode="&#xd5;" horiz-adv-x="1282" d="M129 727q0 270 39 423t151 226q113 76 322 76q94 0 166.5 -15t126.5 -43t92.5 -74.5t63 -102t38.5 -134.5t19.5 -162t5.5 -194q0 -281 -43.5 -442t-165.5 -236q-110 -67 -303 -67q-93 0 -166 16.5t-127 45.5t-92.5 78t-63 106.5t-38.5 138.5t-19.5 165t-5.5 195zM207 727 q0 -90 2.5 -157t10.5 -135.5t22 -117t36 -94.5t54.5 -75.5t76.5 -52.5t101.5 -33.5t130.5 -10.5q146 0 229 41q52 25 89.5 67.5t59.5 95t35 129.5t17 155t4 188q0 104 -3.5 177t-14.5 146.5t-30.5 121.5t-51.5 91t-78 67.5t-109.5 38t-146.5 13.5q-145 0 -223 -34 q-55 -23 -93.5 -63t-61.5 -90t-35.5 -126t-16.5 -153t-4 -189zM332 1747q13 14 34 34t68.5 53.5t73.5 33.5q45 0 162 -64.5t145 -64.5q16 0 50 25.5t61 51.5l26 25l19 -49q-12 -13 -31 -32.5t-62 -52t-67 -32.5q-44 0 -161.5 65.5t-145.5 65.5q-19 0 -58 -27.5t-68 -54.5 l-30 -28z" />
<glyph unicode="&#xd6;" horiz-adv-x="1282" d="M129 727q0 270 39 423t151 226q113 76 322 76q94 0 166.5 -15t126.5 -43t92.5 -74.5t63 -102t38.5 -134.5t19.5 -162t5.5 -194q0 -281 -43.5 -442t-165.5 -236q-110 -67 -303 -67q-93 0 -166 16.5t-127 45.5t-92.5 78t-63 106.5t-38.5 138.5t-19.5 165t-5.5 195zM207 727 q0 -90 2.5 -157t10.5 -135.5t22 -117t36 -94.5t54.5 -75.5t76.5 -52.5t101.5 -33.5t130.5 -10.5q146 0 229 41q52 25 89.5 67.5t59.5 95t35 129.5t17 155t4 188q0 104 -3.5 177t-14.5 146.5t-30.5 121.5t-51.5 91t-78 67.5t-109.5 38t-146.5 13.5q-145 0 -223 -34 q-55 -23 -93.5 -63t-61.5 -90t-35.5 -126t-16.5 -153t-4 -189zM424 1706v133h70v-133h-70zM793 1706v133h65v-133h-65z" />
<glyph unicode="&#xd7;" d="M166 156l360 358l-360 358l49 50l358 -361l359 361l49 -50l-360 -358l360 -358l-49 -50l-359 361l-358 -361z" />
<glyph unicode="&#xd8;" horiz-adv-x="1282" d="M129 727q0 270 39 423t151 226q113 76 322 76q170 0 274 -49l97 217l65 -27l-100 -227q101 -77 138.5 -229.5t37.5 -409.5q0 -281 -43.5 -442t-165.5 -236q-110 -67 -303 -67q-154 0 -260 45l-113 -252l-65 26l116 260q-111 80 -150.5 237.5t-39.5 428.5zM207 727 q0 -248 28 -386.5t115 -209.5l258 580l277 624q-89 47 -244 47q-145 0 -223 -34q-55 -23 -93.5 -63t-61.5 -90t-35.5 -126t-16.5 -153t-4 -189zM410 92q90 -41 231 -41q146 0 229 41q52 25 89.5 67.5t59.5 95t35 129.5t17 155t4 188q0 235 -26 366t-105 201l-270 -610z" />
<glyph unicode="&#xd9;" horiz-adv-x="1220" d="M166 403v1031h74v-1031q0 -187 91 -270.5t279 -83.5q189 0 280 83t91 271v1031h74v-1031q0 -421 -445 -421q-444 0 -444 421zM358 1823l29 59l371 -199l-25 -49z" />
<glyph unicode="&#xda;" horiz-adv-x="1220" d="M166 403v1031h74v-1031q0 -187 91 -270.5t279 -83.5q189 0 280 83t91 271v1031h74v-1031q0 -421 -445 -421q-444 0 -444 421zM457 1683l372 199l29 -59l-373 -189z" />
<glyph unicode="&#xdb;" horiz-adv-x="1220" d="M166 403v1031h74v-1031q0 -187 91 -270.5t279 -83.5q189 0 280 83t91 271v1031h74v-1031q0 -421 -445 -421q-444 0 -444 421zM332 1642l262 263h31l264 -263h-78l-201 191l-200 -191h-78z" />
<glyph unicode="&#xdc;" horiz-adv-x="1220" d="M166 403v1031h74v-1031q0 -187 91 -270.5t279 -83.5q189 0 280 83t91 271v1031h74v-1031q0 -421 -445 -421q-444 0 -444 421zM393 1706v133h70v-133h-70zM762 1706v133h65v-133h-65z" />
<glyph unicode="&#xdd;" horiz-adv-x="1013" d="M35 1434h84l389 -734l383 734h84l-430 -820v-614h-74v614zM371 1683l372 199l29 -59l-373 -189z" />
<glyph unicode="&#xde;" horiz-adv-x="1138" d="M174 0v1434h70v-248h403q191 0 296.5 -111t105.5 -340q0 -216 -99 -338.5t-303 -122.5h-403v-274h-70zM244 344h403q166 0 245 106t79 285q0 65 -10.5 120t-34.5 104t-60.5 83t-92 54t-126.5 20h-403v-772z" />
<glyph unicode="&#xdf;" horiz-adv-x="1060" d="M152 0v1141q0 113 18.5 185.5t61.5 113.5t102 57t151 16q183 0 256.5 -66.5t73.5 -211.5q0 -107 -29.5 -161t-105.5 -97q-71 -40 -97 -66t-26 -63q0 -45 30.5 -75t127.5 -85q67 -38 102.5 -60.5t72 -53.5t52 -61.5t25.5 -73t10 -99.5q0 -186 -86 -272t-275 -86 q-33 0 -85 3t-87 6l-36 3l4 67q132 -14 202 -14q159 0 224 72t65 227q0 56 -8 89.5t-36.5 67t-68.5 59.5t-120 71q-103 58 -145 102t-42 113q0 60 31.5 97.5t124.5 88.5q56 31 79 75t23 126q0 125 -54.5 169t-201.5 44q-73 0 -119 -12t-80.5 -46t-49.5 -95.5t-15 -159.5 v-1135h-69z" />
<glyph unicode="&#xe0;" horiz-adv-x="985" d="M115 485q0 136 17.5 232t61.5 172.5t125 114.5t201 38q41 0 119.5 -8t136.5 -16l58 -8v-785q0 -55 3 -111t6 -85l3 -29l-74 -4q-10 113 -10 209q-5 -9 -15 -24t-43.5 -53.5t-69.5 -68t-92.5 -53.5t-113.5 -24q-172 0 -242.5 123.5t-70.5 379.5zM190 485q0 -82 6.5 -145 t23 -120t44 -93.5t71 -58t101.5 -21.5q53 0 106 27t90.5 65.5t68 77t45.5 65.5l16 27v643q-166 25 -227 25q-85 0 -146 -21.5t-99.5 -60t-60.5 -102t-30.5 -135.5t-8.5 -173zM313 1436l29 59l371 -197l-25 -51z" />
<glyph unicode="&#xe1;" horiz-adv-x="985" d="M115 485q0 136 17.5 232t61.5 172.5t125 114.5t201 38q41 0 119.5 -8t136.5 -16l58 -8v-785q0 -55 3 -111t6 -85l3 -29l-74 -4q-10 113 -10 209q-5 -9 -15 -24t-43.5 -53.5t-69.5 -68t-92.5 -53.5t-113.5 -24q-172 0 -242.5 123.5t-70.5 379.5zM190 485q0 -82 6.5 -145 t23 -120t44 -93.5t71 -58t101.5 -21.5q53 0 106 27t90.5 65.5t68 77t45.5 65.5l16 27v643q-166 25 -227 25q-85 0 -146 -21.5t-99.5 -60t-60.5 -102t-30.5 -135.5t-8.5 -173zM393 1298l373 197l27 -59l-373 -189z" />
<glyph unicode="&#xe2;" horiz-adv-x="985" d="M115 485q0 136 17.5 232t61.5 172.5t125 114.5t201 38q41 0 119.5 -8t136.5 -16l58 -8v-785q0 -55 3 -111t6 -85l3 -29l-74 -4q-10 113 -10 209q-5 -9 -15 -24t-43.5 -53.5t-69.5 -68t-92.5 -53.5t-113.5 -24q-172 0 -242.5 123.5t-70.5 379.5zM190 485q0 -82 6.5 -145 t23 -120t44 -93.5t71 -58t101.5 -21.5q53 0 106 27t90.5 65.5t68 77t45.5 65.5l16 27v643q-166 25 -227 25q-85 0 -146 -21.5t-99.5 -60t-60.5 -102t-30.5 -135.5t-8.5 -173zM250 1219l242 276h47l243 -276h-86l-180 204l-180 -204h-86z" />
<glyph unicode="&#xe3;" horiz-adv-x="985" d="M115 485q0 136 17.5 232t61.5 172.5t125 114.5t201 38q41 0 119.5 -8t136.5 -16l58 -8v-785q0 -55 3 -111t6 -85l3 -29l-74 -4q-10 113 -10 209q-5 -9 -15 -24t-43.5 -53.5t-69.5 -68t-92.5 -53.5t-113.5 -24q-172 0 -242.5 123.5t-70.5 379.5zM190 485q0 -82 6.5 -145 t23 -120t44 -93.5t71 -58t101.5 -21.5q53 0 106 27t90.5 65.5t68 77t45.5 65.5l16 27v643q-166 25 -227 25q-85 0 -146 -21.5t-99.5 -60t-60.5 -102t-30.5 -135.5t-8.5 -173zM254 1362q11 11 29 27.5t61 43.5t70 27q36 0 146 -53t136 -53q17 0 47 20t51 40l21 20l16 -54 q-9 -10 -24.5 -25t-53 -40t-61.5 -25q-41 0 -149 52.5t-135 52.5q-19 0 -53.5 -22.5t-59.5 -44.5l-25 -23z" />
<glyph unicode="&#xe4;" horiz-adv-x="985" d="M115 485q0 136 17.5 232t61.5 172.5t125 114.5t201 38q41 0 119.5 -8t136.5 -16l58 -8v-785q0 -55 3 -111t6 -85l3 -29l-74 -4q-10 113 -10 209q-5 -9 -15 -24t-43.5 -53.5t-69.5 -68t-92.5 -53.5t-113.5 -24q-172 0 -242.5 123.5t-70.5 379.5zM190 485q0 -82 6.5 -145 t23 -120t44 -93.5t71 -58t101.5 -21.5q53 0 106 27t90.5 65.5t68 77t45.5 65.5l16 27v643q-166 25 -227 25q-85 0 -146 -21.5t-99.5 -60t-60.5 -102t-30.5 -135.5t-8.5 -173zM279 1296v134h69v-134h-69zM647 1296v134h66v-134h-66z" />
<glyph unicode="&#xe5;" horiz-adv-x="985" d="M115 485q0 136 17.5 232t61.5 172.5t125 114.5t201 38q41 0 119.5 -8t136.5 -16l58 -8v-785q0 -55 3 -111t6 -85l3 -29l-74 -4q-10 113 -10 209q-5 -9 -15 -24t-43.5 -53.5t-69.5 -68t-92.5 -53.5t-113.5 -24q-172 0 -242.5 123.5t-70.5 379.5zM190 485q0 -82 6.5 -145 t23 -120t44 -93.5t71 -58t101.5 -21.5q53 0 106 27t90.5 65.5t68 77t45.5 65.5l16 27v643q-166 25 -227 25q-85 0 -146 -21.5t-99.5 -60t-60.5 -102t-30.5 -135.5t-8.5 -173zM360 1366q0 78 50 132t127 54q75 0 122.5 -54t47.5 -132q0 -84 -46.5 -135t-123.5 -51 q-79 0 -128 51t-49 135zM416 1366q0 -52 35.5 -89.5t85.5 -37.5q49 0 81.5 37t32.5 90t-32.5 88t-81.5 35q-50 0 -85.5 -35.5t-35.5 -87.5z" />
<glyph unicode="&#xe6;" horiz-adv-x="1581" d="M94 283q0 129 48 191.5t165 88.5q126 30 416 58q0 143 -13 199q-30 122 -147 141q-24 4 -51 4q-63 0 -153.5 -4.5t-149.5 -9.5l-59 -5l-5 76q213 20 367 20q223 0 270 -198q100 198 332 198q278 0 342 -266q23 -101 23 -225v-72h-680q0 -129 20 -213q27 -106 90.5 -158.5 t177.5 -52.5q60 0 147.5 4.5t145.5 9.5l58 5l4 -74q-216 -18 -355 -18q-189 0 -276 120q-84 -35 -145 -56.5t-154 -42.5t-172 -21q-128 0 -187 83t-59 218zM168 283q0 -43 9 -81t28 -72.5t54 -54.5t83 -20q79 0 183 23.5t162 43.5t91 34q-57 134 -57 397q-183 -16 -352 -45 q-108 -19 -154.5 -69.5t-46.5 -155.5zM799 553h608q0 182 -45 278q-63 138 -248 138q-315 0 -315 -416z" />
<glyph unicode="&#xe7;" horiz-adv-x="813" d="M115 535q0 270 91.5 388.5t305.5 118.5q33 0 87 -5t92 -10l38 -5l-4 -66q-139 21 -213 21q-179 0 -250.5 -105t-71.5 -337q0 -70 2.5 -121t11 -105t23 -91.5t38.5 -71.5t57.5 -54.5t81 -32.5t108.5 -12q33 0 86 4.5t90 9.5l37 5l4 -66q-143 -18 -217 -18h-25v-91h17 q41 0 71.5 -5.5t57.5 -20.5t41 -45t14 -74q0 -154 -160 -154q-37 0 -76 2t-59 4l-20 3l4 63q86 -8 149 -8q95 0 95 90q0 49 -26 65.5t-69 16.5h-102v160q-79 9 -134.5 39t-89.5 73.5t-53 113t-25.5 143t-6.5 178.5z" />
<glyph unicode="&#xe8;" horiz-adv-x="911" d="M113 510q0 270 99.5 400t305.5 130q136 0 218.5 -60.5t82.5 -182.5q0 -174 -114 -242t-386 -68h-131v-26q0 -201 66 -307.5t211 -106.5q65 0 142.5 11.5t122.5 23.5l44 12l10 -59q-16 -6 -44 -15t-112 -23.5t-165 -14.5q-186 0 -268 123.5t-82 404.5zM188 553h129 q239 0 333.5 51t94.5 193q0 178 -229 178q-169 0 -247.5 -105.5t-80.5 -316.5zM258 1436l29 59l370 -197l-24 -51z" />
<glyph unicode="&#xe9;" horiz-adv-x="911" d="M113 510q0 270 99.5 400t305.5 130q136 0 218.5 -60.5t82.5 -182.5q0 -174 -114 -242t-386 -68h-131v-26q0 -201 66 -307.5t211 -106.5q65 0 142.5 11.5t122.5 23.5l44 12l10 -59q-16 -6 -44 -15t-112 -23.5t-165 -14.5q-186 0 -268 123.5t-82 404.5zM188 553h129 q239 0 333.5 51t94.5 193q0 178 -229 178q-169 0 -247.5 -105.5t-80.5 -316.5zM317 1298l373 197l27 -59l-373 -189z" />
<glyph unicode="&#xea;" horiz-adv-x="911" d="M113 510q0 270 99.5 400t305.5 130q136 0 218.5 -60.5t82.5 -182.5q0 -174 -114 -242t-386 -68h-131v-26q0 -201 66 -307.5t211 -106.5q65 0 142.5 11.5t122.5 23.5l44 12l10 -59q-16 -6 -44 -15t-112 -23.5t-165 -14.5q-186 0 -268 123.5t-82 404.5zM188 553h129 q239 0 333.5 51t94.5 193q0 178 -229 178q-169 0 -247.5 -105.5t-80.5 -316.5zM227 1219l242 276h47l244 -276h-86l-180 204l-181 -204h-86z" />
<glyph unicode="&#xeb;" horiz-adv-x="911" d="M113 510q0 270 99.5 400t305.5 130q136 0 218.5 -60.5t82.5 -182.5q0 -174 -114 -242t-386 -68h-131v-26q0 -201 66 -307.5t211 -106.5q65 0 142.5 11.5t122.5 23.5l44 12l10 -59q-16 -6 -44 -15t-112 -23.5t-165 -14.5q-186 0 -268 123.5t-82 404.5zM188 553h129 q239 0 333.5 51t94.5 193q0 178 -229 178q-169 0 -247.5 -105.5t-80.5 -316.5zM279 1296v134h69v-134h-69zM647 1296v134h66v-134h-66z" />
<glyph unicode="&#xec;" horiz-adv-x="374" d="M-133 1436l29 59l370 -197l-24 -51zM152 0v1024h71v-1024h-71z" />
<glyph unicode="&#xed;" horiz-adv-x="374" d="M123 1298l373 197l26 -59l-372 -189zM152 0v1024h71v-1024h-71z" />
<glyph unicode="&#xee;" horiz-adv-x="374" d="M-78 1219l242 276h47l244 -276h-86l-181 204l-180 -204h-86zM152 0v1024h71v-1024h-71z" />
<glyph unicode="&#xef;" horiz-adv-x="374" d="M-29 1296v134h70v-134h-70zM152 0v1024h71v-1024h-71zM340 1296v134h66v-134h-66z" />
<glyph unicode="&#xf0;" horiz-adv-x="1036" d="M90 412q0 217 102 338.5t291 121.5q64 0 156 -22.5t151 -45.5l60 -22q-22 323 -330 512l-225 -159l-39 55l201 141q-107 57 -254 107l28 71q161 -53 295 -129l191 138l41 -56l-170 -119q332 -223 332 -604q0 -284 -43.5 -449.5t-132 -236.5t-238.5 -71q-201 0 -308.5 113 t-107.5 317zM166 412q0 -162 87.5 -257.5t252.5 -95.5q128 0 201 58t108 196.5t37 388.5q-14 7 -69 27t-145.5 43t-150.5 23q-154 0 -237.5 -102t-83.5 -281z" />
<glyph unicode="&#xf1;" horiz-adv-x="999" d="M152 0h71v739q7 10 18.5 26t48 57t73.5 72.5t89 57t99 25.5q124 0 178.5 -89t54.5 -276v-612h72v641q0 203 -73 302t-228 99q-51 0 -104 -21.5t-92 -52t-71 -61t-48 -51.5l-17 -22v190h-71v-1024zM233 1362q11 11 29 27.5t61 43.5t70 27q36 0 146.5 -53t136.5 -53 q17 0 47 20t51 40l21 20l16 -54q-9 -10 -24.5 -25t-53 -40t-61.5 -25q-41 0 -149.5 52.5t-135.5 52.5q-19 0 -53.5 -22.5t-59.5 -44.5l-24 -23z" />
<glyph unicode="&#xf2;" horiz-adv-x="995" d="M117 530q0 108 10.5 186t36.5 142t69 103t109 60t156 21t156 -21t109 -60t69 -103t36.5 -142t10.5 -186q0 -72 -2 -122.5t-8 -107.5t-17.5 -95t-30.5 -77.5t-47 -63.5t-67 -44t-91 -29t-118 -9t-118 9t-91 29t-67 44t-47 63.5t-30.5 77.5t-17.5 95t-8 107.5t-2 122.5z M190 530q0 -59 1 -97.5t4 -86t9 -77.5t17 -65t27 -56.5t39 -42.5t53 -32.5t69.5 -18.5t88.5 -7q44 0 80.5 5t65 16.5t51 25t39 36.5t28.5 44t20 54.5t12.5 62t7 72.5t3 79t0.5 88q0 246 -65 346.5t-242 100.5t-242.5 -100.5t-65.5 -346.5zM266 1436l29 59l371 -197l-25 -51z " />
<glyph unicode="&#xf3;" horiz-adv-x="995" d="M117 530q0 108 10.5 186t36.5 142t69 103t109 60t156 21t156 -21t109 -60t69 -103t36.5 -142t10.5 -186q0 -72 -2 -122.5t-8 -107.5t-17.5 -95t-30.5 -77.5t-47 -63.5t-67 -44t-91 -29t-118 -9t-118 9t-91 29t-67 44t-47 63.5t-30.5 77.5t-17.5 95t-8 107.5t-2 122.5z M190 530q0 -59 1 -97.5t4 -86t9 -77.5t17 -65t27 -56.5t39 -42.5t53 -32.5t69.5 -18.5t88.5 -7q44 0 80.5 5t65 16.5t51 25t39 36.5t28.5 44t20 54.5t12.5 62t7 72.5t3 79t0.5 88q0 246 -65 346.5t-242 100.5t-242.5 -100.5t-65.5 -346.5zM338 1298l373 197l26 -59 l-372 -189z" />
<glyph unicode="&#xf4;" horiz-adv-x="995" d="M117 530q0 108 10.5 186t36.5 142t69 103t109 60t156 21t156 -21t109 -60t69 -103t36.5 -142t10.5 -186q0 -72 -2 -122.5t-8 -107.5t-17.5 -95t-30.5 -77.5t-47 -63.5t-67 -44t-91 -29t-118 -9t-118 9t-91 29t-67 44t-47 63.5t-30.5 77.5t-17.5 95t-8 107.5t-2 122.5z M190 530q0 -59 1 -97.5t4 -86t9 -77.5t17 -65t27 -56.5t39 -42.5t53 -32.5t69.5 -18.5t88.5 -7q44 0 80.5 5t65 16.5t51 25t39 36.5t28.5 44t20 54.5t12.5 62t7 72.5t3 79t0.5 88q0 246 -65 346.5t-242 100.5t-242.5 -100.5t-65.5 -346.5zM231 1219l242 276h47l244 -276h-86 l-180 204l-181 -204h-86z" />
<glyph unicode="&#xf5;" horiz-adv-x="995" d="M117 530q0 108 10.5 186t36.5 142t69 103t109 60t156 21t156 -21t109 -60t69 -103t36.5 -142t10.5 -186q0 -72 -2 -122.5t-8 -107.5t-17.5 -95t-30.5 -77.5t-47 -63.5t-67 -44t-91 -29t-118 -9t-118 9t-91 29t-67 44t-47 63.5t-30.5 77.5t-17.5 95t-8 107.5t-2 122.5z M190 530q0 -59 1 -97.5t4 -86t9 -77.5t17 -65t27 -56.5t39 -42.5t53 -32.5t69.5 -18.5t88.5 -7q44 0 80.5 5t65 16.5t51 25t39 36.5t28.5 44t20 54.5t12.5 62t7 72.5t3 79t0.5 88q0 246 -65 346.5t-242 100.5t-242.5 -100.5t-65.5 -346.5zM209 1362q11 11 29 27.5t61 43.5 t70 27q36 0 146 -53t136 -53q17 0 47 20t51 40l21 20l16 -54q-9 -10 -24.5 -25t-53 -40t-61.5 -25q-41 0 -149.5 52.5t-135.5 52.5q-19 0 -53.5 -22.5t-58.5 -44.5l-25 -23z" />
<glyph unicode="&#xf6;" horiz-adv-x="995" d="M117 530q0 108 10.5 186t36.5 142t69 103t109 60t156 21t156 -21t109 -60t69 -103t36.5 -142t10.5 -186q0 -72 -2 -122.5t-8 -107.5t-17.5 -95t-30.5 -77.5t-47 -63.5t-67 -44t-91 -29t-118 -9t-118 9t-91 29t-67 44t-47 63.5t-30.5 77.5t-17.5 95t-8 107.5t-2 122.5z M190 530q0 -59 1 -97.5t4 -86t9 -77.5t17 -65t27 -56.5t39 -42.5t53 -32.5t69.5 -18.5t88.5 -7q44 0 80.5 5t65 16.5t51 25t39 36.5t28.5 44t20 54.5t12.5 62t7 72.5t3 79t0.5 88q0 246 -65 346.5t-242 100.5t-242.5 -100.5t-65.5 -346.5zM285 1296v134h59v-134h-59z M643 1296v134h55v-134h-55z" />
<glyph unicode="&#xf7;" d="M119 479v70h909v-70h-909zM535 80v164h77v-164h-77zM535 784v164h77v-164h-77z" />
<glyph unicode="&#xf8;" horiz-adv-x="995" d="M117 530q0 108 10.5 186t36.5 142t69 103t109 60t156 21t161 -22l84 217l62 -23l-88 -219q90 -52 126 -164.5t36 -300.5q0 -72 -2 -122.5t-8 -107.5t-17.5 -95t-30.5 -77.5t-47 -63.5t-67 -44t-91 -29t-118 -9q-104 0 -168 20l-88 -233l-60 20l92 236q-35 19 -61 46 t-43 64.5t-28 76t-16 93.5t-7 104.5t-2 120.5zM190 530q0 -190 20 -289.5t91 -148.5l168 428l166 436q-56 21 -137 21q-177 0 -242.5 -100.5t-65.5 -346.5zM354 66q62 -19 144 -19q44 0 80.5 5t65 16.5t51 25t39 36.5t28.5 44t20 54.5t12.5 62t7 72.5t3 79t0.5 88 q0 161 -26 256.5t-89 141.5l-170 -432z" />
<glyph unicode="&#xf9;" horiz-adv-x="999" d="M143 403v621h72v-612q0 -187 55 -276t179 -89q47 0 98 24.5t90 59.5t71.5 70t49.5 59l18 25v739h72v-1024h-72v190q-6 -8 -17.5 -22.5t-47 -50t-72.5 -63t-90.5 -50t-104.5 -22.5q-159 0 -230 101.5t-71 319.5zM215 1436l29 59l370 -197l-24 -51z" />
<glyph unicode="&#xfa;" horiz-adv-x="999" d="M143 403v621h72v-612q0 -187 55 -276t179 -89q47 0 98 24.5t90 59.5t71.5 70t49.5 59l18 25v739h72v-1024h-72v190q-6 -8 -17.5 -22.5t-47 -50t-72.5 -63t-90.5 -50t-104.5 -22.5q-159 0 -230 101.5t-71 319.5zM362 1298l373 197l27 -59l-373 -189z" />
<glyph unicode="&#xfb;" horiz-adv-x="999" d="M143 403v621h72v-612q0 -187 55 -276t179 -89q47 0 98 24.5t90 59.5t71.5 70t49.5 59l18 25v739h72v-1024h-72v190q-6 -8 -17.5 -22.5t-47 -50t-72.5 -63t-90.5 -50t-104.5 -22.5q-159 0 -230 101.5t-71 319.5zM233 1219l242 276h47l244 -276h-86l-180 204l-181 -204h-86 z" />
<glyph unicode="&#xfc;" horiz-adv-x="999" d="M143 403v621h72v-612q0 -187 55 -276t179 -89q47 0 98 24.5t90 59.5t71.5 70t49.5 59l18 25v739h72v-1024h-72v190q-6 -8 -17.5 -22.5t-47 -50t-72.5 -63t-90.5 -50t-104.5 -22.5q-159 0 -230 101.5t-71 319.5zM283 1296v134h69v-134h-69zM651 1296v134h66v-134h-66z" />
<glyph unicode="&#xfd;" horiz-adv-x="905" d="M63 1024h76l271 -958h82l274 958h78l-434 -1495h-74l139 471h-119zM334 1298l373 197l26 -59l-373 -189z" />
<glyph unicode="&#xfe;" horiz-adv-x="985" d="M152 -467v1958h69v-653q9 13 25.5 32.5t49 51t67.5 57t81.5 44.5t90.5 19q337 0 337 -534q0 -128 -20.5 -221.5t-67.5 -163.5t-128 -105.5t-197 -35.5q-44 0 -103.5 5t-97.5 10l-37 5v-469h-69zM221 76q138 -25 238 -25q186 0 261 111.5t75 345.5q0 95 -13 173.5 t-41.5 146t-81 105.5t-124.5 38q-46 0 -95.5 -23.5t-87 -57.5t-68.5 -68t-47 -58l-16 -23v-665z" />
<glyph unicode="&#xff;" horiz-adv-x="905" d="M63 1024h76l271 -958h82l274 958h78l-434 -1495h-74l139 471h-119zM236 1296v134h69v-134h-69zM604 1296v134h66v-134h-66z" />
<glyph unicode="&#x152;" horiz-adv-x="1796" d="M125 707q0 147 15 259t50.5 206t93 154t145 93t204.5 33q141 0 303 -18h762v-78h-692v-580h577v-78h-577v-620h692v-80h-760q-196 -16 -305 -16q-196 0 -307 81t-158 246q-43 147 -43 398zM197 711q0 -228 34 -359q39 -149 134 -221t268 -72q59 0 303 17v1278 q-180 20 -303 20q-103 0 -179 -29t-125 -81.5t-78.5 -136.5t-41.5 -183.5t-12 -232.5z" />
<glyph unicode="&#x153;" horiz-adv-x="1687" d="M117 535q0 281 89 394t306 113q274 0 356 -245q44 126 135.5 185.5t213.5 59.5q131 0 215.5 -57.5t121.5 -181.5q31 -105 31 -252v-72h-686q0 -139 27 -233q28 -96 92 -143.5t174 -47.5q61 0 149 4.5t145 9.5l58 5l4 -74q-217 -18 -358 -18q-122 0 -203.5 59t-120.5 160 q-37 -112 -122 -165.5t-232 -53.5q-151 0 -234 46.5t-120 151.5q-25 71 -33 152.5t-8 202.5zM186 535q0 -141 12 -229t44 -142q34 -57 98.5 -83t171.5 -26q63 0 111.5 12.5t82 33t56.5 56t36 70.5t20 89.5t9 100t2 113.5q0 178 -41 273q-36 87 -104 126.5t-172 39.5 q-127 0 -196 -38.5t-99.5 -131t-30.5 -264.5zM899 553h614q0 178 -47 278q-66 138 -249 138q-318 0 -318 -416z" />
<glyph unicode="&#x178;" horiz-adv-x="1013" d="M35 1434h84l389 -734l383 734h84l-430 -820v-614h-74v614zM295 1700v135h57v-135h-57zM664 1700v135h55v-135h-55z" />
<glyph unicode="&#x2c6;" horiz-adv-x="1619" d="M535 1219l241 276h31l244 -276h-78l-180 204l-181 -204h-77z" />
<glyph unicode="&#x2dc;" horiz-adv-x="847" d="M158 1362q11 11 29 27.5t60.5 43.5t69.5 27q36 0 146.5 -53t136.5 -53q17 0 47 20t51 40l21 20l16 -54q-9 -10 -24.5 -25t-53 -40t-61.5 -25q-41 0 -149.5 52.5t-135.5 52.5q-19 0 -53.5 -22.5t-59.5 -44.5l-24 -23z" />
<glyph unicode="&#x2000;" horiz-adv-x="953" />
<glyph unicode="&#x2001;" horiz-adv-x="1907" />
<glyph unicode="&#x2002;" horiz-adv-x="953" />
<glyph unicode="&#x2003;" horiz-adv-x="1907" />
<glyph unicode="&#x2004;" horiz-adv-x="635" />
<glyph unicode="&#x2005;" horiz-adv-x="476" />
<glyph unicode="&#x2006;" horiz-adv-x="317" />
<glyph unicode="&#x2007;" horiz-adv-x="317" />
<glyph unicode="&#x2008;" horiz-adv-x="238" />
<glyph unicode="&#x2009;" horiz-adv-x="381" />
<glyph unicode="&#x200a;" horiz-adv-x="105" />
<glyph unicode="&#x2010;" horiz-adv-x="788" d="M145 516v70h498v-70h-498z" />
<glyph unicode="&#x2011;" horiz-adv-x="788" d="M145 516v70h498v-70h-498z" />
<glyph unicode="&#x2012;" horiz-adv-x="788" d="M145 516v70h498v-70h-498z" />
<glyph unicode="&#x2013;" horiz-adv-x="1314" d="M145 516v70h1024v-70h-1024z" />
<glyph unicode="&#x2014;" horiz-adv-x="2338" d="M145 516v70h2048v-70h-2048z" />
<glyph unicode="&#x2018;" horiz-adv-x="374" d="M115 1018l94 416h53l-74 -416h-73z" />
<glyph unicode="&#x2019;" horiz-adv-x="370" d="M119 1018l74 416h73l-94 -416h-53z" />
<glyph unicode="&#x201a;" horiz-adv-x="350" d="M61 -311l95 415h53l-74 -415h-74z" />
<glyph unicode="&#x201c;" horiz-adv-x="655" d="M115 1018l94 416h53l-74 -416h-73zM395 1018l94 416h54l-74 -416h-74z" />
<glyph unicode="&#x201d;" horiz-adv-x="651" d="M119 1018l74 416h73l-94 -416h-53zM399 1018l74 416h74l-94 -416h-54z" />
<glyph unicode="&#x201e;" horiz-adv-x="575" d="M61 -311l95 415h53l-74 -415h-74zM287 -311l94 415h53l-74 -415h-73z" />
<glyph unicode="&#x2022;" horiz-adv-x="974" d="M231 225v594h512v-594h-512z" />
<glyph unicode="&#x2026;" horiz-adv-x="1345" d="M145 0v170h74v-170h-74zM637 0v170h74v-170h-74zM1126 0v170h74v-170h-74z" />
<glyph unicode="&#x202f;" horiz-adv-x="381" />
<glyph unicode="&#x2039;" horiz-adv-x="557" d="M92 496v43l320 262v-70l-265 -213l265 -233v-70z" />
<glyph unicode="&#x203a;" horiz-adv-x="557" d="M145 213v70l265 213l-265 233v70l320 -281v-43z" />
<glyph unicode="&#x205f;" horiz-adv-x="476" />
<glyph unicode="&#x20ac;" d="M113 465v65h106q-2 45 -2 142q0 84 2 125h-106v65h110q11 119 37 207.5t75.5 159t131 107t195.5 36.5q77 0 159.5 -10t126.5 -20l43 -9l-6 -65q-173 39 -323 39q-97 0 -166 -31.5t-110 -93.5t-62 -139t-29 -181h614v-65h-618q-2 -41 -2 -125q0 -97 2 -142h618v-65h-612 q10 -100 32 -172.5t63.5 -129.5t108.5 -85.5t161 -28.5q57 0 138 9.5t133 19.5l52 10l6 -68q-184 -38 -329 -38q-112 0 -192.5 32.5t-130.5 97t-76.5 150t-37.5 203.5h-112z" />
<glyph unicode="&#x2122;" horiz-adv-x="1384" d="M188 1208v64h410v-64h-170v-528h-68v528h-172zM670 678v594h102l172 -496l178 496h103v-594h-66v528l-180 -506h-72l-172 506v-528h-65z" />
<glyph unicode="&#xe000;" horiz-adv-x="1024" d="M0 0v1024h1024v-1024h-1024z" />
</font>
</defs>
</svg>
